Index
# A B C D E F G H I J K L M N O P Q R S T U V W Y Z
Tags
Language
Tags

Featured TV Shows


Station 19 S02E07

Posted By: Tavaz
720p (HD) / WEBRip IMDb
Station 19 S02E07

Station 19 S02E07
WEBRip | MKV | 1280x720 | English | H264 @ 6000 kbps | E-AC-3 @ 256 kbps | 41 min 50 s | 1.79 GiB
Subtitles: English
Genre: Drama

A group of heroic firefighters at Seattle Fire Station 19—from captain to newest recruit—risk their lives and hearts both in the line of duty and off the clock. These brave men and women are like family, literally and figuratively, and together they put their own lives in jeopardy as first responders to save the lives of others.

b32db315c77443e29d83765cdb02af84.mkv (1.8 GB)



General
Unique ID : 102720009042190556217356880370492207935 (0x4D47277513CBB9D3003318EE93C3733F)
Complete name : ./b32db315c77443e29d83765cdb02af84.mkv
Format : Matroska
Format version : Version 4 / Version 2
File size : 1.79 GiB
Duration : 41 min 50 s
Overall bit rate : 6 140 kb/s
Encoded date : UTC 2018-11-16 10:11:33
Writing application : mkvmerge v26.0.0 ('In The Game') 64-bit
Writing library : libebml v1.3.6 + libmatroska v1.4.9

Video
ID : 1
Format : AVC
Format/Info : Advanced Video Codec
Format profile : High@L3.1
Format settings : CABAC / 4 Ref Frames
Format settings, CABAC : Yes
Format settings, RefFrames : 4 frames
Codec ID : V_MPEG4/ISO/AVC
Duration : 41 min 50 s
Bit rate mode : Constant
Bit rate : 6 000 kb/s
Width : 1 280 pixels
Height : 720 pixels
Display aspect ratio : 16:9
Frame rate mode : Constant
Frame rate : 23.976 (24000/1001) FPS
Color space : YUV
Chroma subsampling : 4:2:0
Bit depth : 8 bits
Scan type : Progressive
Bits/(Pixel*Frame) : 0.272
Stream size : 1.72 GiB (96%)
Language : English
Default : Yes
Forced : No
Color range : Limited
Color primaries : BT.709
Transfer characteristics : BT.709
Matrix coefficients : BT.709

Audio
ID : 2
Format : E-AC-3
Format/Info : Enhanced Audio Coding 3
Format settings, Endianness : Big
Codec ID : A_EAC3
Duration : 41 min 50 s
Bit rate mode : Constant
Bit rate : 256 kb/s
Channel(s) : 6 channels
Channel positions : Front: L C R, Side: L R, LFE
Sampling rate : 48.0 kHz
Frame rate : 187.500 FPS (256 SPF)
Compression mode : Lossy
Stream size : 76.6 MiB (4%)
Language : English
Service kind : Complete Main
Default : Yes
Forced : No

Text
ID : 3
Format : UTF-8
Codec ID : S_TEXT/UTF8
Codec ID/Info : UTF-8 Plain Text
Duration : 41 min 40 s
Bit rate : 110 b/s
Count of elements : 1122
Stream size : 33.6 KiB (0%)
Title : English SDH
Language : English
Default : No
Forced : No





Station 19 S02E07


Station 19 S02E07


Station 19 S02E07


Station 19 S02E07


Station 19 S02E07

All episodes