Index
# A B C D E F G H I J K L M N O P Q R S T U V W Y Z
Tags
Language
Tags

Featured TV Shows


Station 19 S02E11

Posted By: Tavaz
720p (HD) / WEBRip IMDb
Station 19 S02E11

Station 19 S02E11
WEBRip | MKV | 1280x720 | English | H264 @ 2364 kbps | AAC @ 63 kbps | 43 min 3 s | 748 MiB
Genre: Drama

A group of heroic firefighters at Seattle Fire Station 19—from captain to newest recruit—risk their lives and hearts both in the line of duty and off the clock. These brave men and women are like family, literally and figuratively, and together they put their own lives in jeopardy as first responders to save the lives of others.

c56b959917154f69929dba4d50390f90.mkv (748.3 MB)



General
Unique ID : 232131350927136101439473861550439150658 (0xAEA2DF39F5FE44E160B29961CC403442)
Complete name : ./c56b959917154f69929dba4d50390f90.mkv
Format : Matroska
Format version : Version 4 / Version 2
File size : 748 MiB
Duration : 43 min 3 s
Overall bit rate : 2 430 kb/s
Encoded date : UTC 2019-03-29 09:02:30
Writing application : mkvmerge v31.0.0 ('Dolores In A Shoestand') 64-bit
Writing library : libebml v1.3.6 + libmatroska v1.4.9

Video
ID : 1
Format : AVC
Format/Info : Advanced Video Codec
Format profile : High@L3.1
Format settings : CABAC / 5 Ref Frames
Format settings, CABAC : Yes
Format settings, RefFrames : 5 frames
Codec ID : V_MPEG4/ISO/AVC
Duration : 43 min 3 s
Bit rate : 2 364 kb/s
Width : 1 280 pixels
Height : 720 pixels
Display aspect ratio : 16:9
Frame rate mode : Constant
Frame rate : 23.976 (24000/1001) FPS
Color space : YUV
Chroma subsampling : 4:2:0
Bit depth : 8 bits
Scan type : Progressive
Bits/(Pixel*Frame) : 0.107
Stream size : 728 MiB (97%)
Language : English
Default : Yes
Forced : No

Audio
ID : 2
Format : AAC
Format/Info : Advanced Audio Codec
Format profile : HE-AAC / LC
Format settings : Explicit
Codec ID : A_AAC-2
Duration : 43 min 3 s
Bit rate : 64.0 kb/s
Channel(s) : 2 channels
Channel positions : Front: L R
Sampling rate : 48.0 kHz / 24.0 kHz
Frame rate : 23.438 FPS (1024 SPF)
Compression mode : Lossy
Stream size : 19.7 MiB (3%)
Default : Yes
Forced : No





Station 19 S02E11


Station 19 S02E11


Station 19 S02E11


Station 19 S02E11


Station 19 S02E11

All episodes