Index
# A B C D E F G H I J K L M N O P Q R S T U V W Y Z
Tags
Language
Tags

Featured TV Shows


Station 19 S03E03

Posted By: Tavaz
720p (HD) / HDTV IMDb
Station 19 S03E03

Station 19 S03E03
HDTV | MKV | 1280x718 | English | H264 @ 2897 kbps | AC-3 @ 384 kbps | 41 min 46 s | 1 000 MiB
Genre: Drama


A group of heroic firefighters at Seattle Fire Station 19—from captain to newest recruit—risk their lives and hearts both in the line of duty and off the clock. These brave men and women are like family, literally and figuratively, and together they put their own lives in jeopardy as first responders to save the lives of others.

d58122d1c05a803fd18b0f10fd1d55fe.mkv (1000.3 MB)



General
Unique ID : 230032963527943813978792088855656349729 (0xAD0EBCBD6DE0D68E85E906DBFD194021)
Complete name : ./d58122d1c05a803fd18b0f10fd1d55fe.mkv
Format : Matroska
Format version : Version 4 / Version 2
File size : 1 000 MiB
Duration : 41 min 46 s
Overall bit rate : 3 348 kb/s
Encoded date : UTC 2020-02-07 01:04:51
Writing application : FastLE v3.0.0 - AVS
Writing library : libx264 + libebml + libmatroska + libfastrar

Video
ID : 1
Format : AVC
Format/Info : Advanced Video Codec
Format profile : High@L4.1
Format settings : CABAC / 5 Ref Frames
Format settings, CABAC : Yes
Format settings, RefFrames : 5 frames
Codec ID : V_MPEG4/ISO/AVC
Duration : 41 min 46 s
Bit rate : 2 898 kb/s
Width : 1 280 pixels
Height : 718 pixels
Display aspect ratio : 16:9
Frame rate mode : Constant
Frame rate : 23.976 (24000/1001) FPS
Color space : YUV
Chroma subsampling : 4:2:0
Bit depth : 8 bits
Scan type : Progressive
Bits/(Pixel*Frame) : 0.132
Stream size : 866 MiB (87%)
Writing library : x264 core 159 r2991 1771b55
Encoding settings : cabac=1 / ref=5 / deblock=1:0:0 / analyse=0x3:0x113 / me=hex / subme=8 / psy=1 / psy_rd=1.00:0.00 / mixed_ref=1 / me_range=16 / chroma_me=1 / trellis=2 / 8x8dct=1 / cqm=0 / deadzone=21,11 / fast_pskip=1 / chroma_qp_offset=-2 / threads=22 / lookahead_threads=3 / sliced_threads=0 / nr=0 / decimate=1 / interlaced=0 / bluray_compat=0 / constrained_intra=0 / bframes=3 / b_pyramid=2 / b_adapt=1 / b_bias=0 / direct=3 / weightb=1 / open_gop=0 / weightp=2 / keyint=250 / keyint_min=23 / scenecut=40 / intra_refresh=0 / rc_lookahead=50 / rc=crf / mbtree=1 / crf=18.0 / qcomp=0.60 / qpmin=0 / qpmax=69 / qpstep=4 / ip_ratio=1.40 / aq=1:1.00
Default : Yes
Forced : No
Color range : Limited
Matrix coefficients : BT.709

Audio
ID : 2
Format : AC-3
Format/Info : Audio Coding 3
Format settings, Endianness : Big
Codec ID : A_AC3
Duration : 41 min 46 s
Bit rate mode : Constant
Bit rate : 384 kb/s
Channel(s) : 6 channels
Channel positions : Front: L C R, Side: L R, LFE
Sampling rate : 48.0 kHz
Frame rate : 31.250 FPS (1536 SPF)
Bit depth : 16 bits
Compression mode : Lossy
Stream size : 115 MiB (11%)
Service kind : Complete Main
Default : Yes
Forced : No





Station 19 S03E03


Station 19 S03E03


Station 19 S03E03


Station 19 S03E03


Station 19 S03E03

All episodes