Index
# A B C D E F G H I J K L M N O P Q R S T U V W Y Z
Tags
Language
Tags

Featured TV Shows


Station 19 S03E04

Posted By: Tavaz
720p (HD) / WEBRip IMDb
Station 19 S03E04

Station 19 S03E04
WEBRip | MKV | 1280x720 | H264 @ 2593 kbps | E-AC-3 @ 256 kbps | 42 min 50 s | 873 MiB
Genre: Drama


A group of heroic firefighters at Seattle Fire Station 19—from captain to newest recruit—risk their lives and hearts both in the line of duty and off the clock. These brave men and women are like family, literally and figuratively, and together they put their own lives in jeopardy as first responders to save the lives of others.

840bf7ea88a14e2eb63e487b4de6c4f8.mkv (873.4 MB)



General
Unique ID : 294994057557456187440208201069741841912 (0xDDEDC9F47937B6486018D03E36919DF8)
Complete name : ./840bf7ea88a14e2eb63e487b4de6c4f8.mkv
Format : Matroska
Format version : Version 4 / Version 2
File size : 873 MiB
Duration : 42 min 50 s
Overall bit rate : 2 851 kb/s
Encoded date : UTC 2020-02-14 10:00:25
Writing application : mkvmerge v38.0.0 ('The Silent Type') 64-bit
Writing library : libebml v1.3.9 + libmatroska v1.5.2

Video
ID : 1
Format : AVC
Format/Info : Advanced Video Codec
Format profile : High@L3.1
Format settings : CABAC / 5 Ref Frames
Format settings, CABAC : Yes
Format settings, RefFrames : 5 frames
Codec ID : V_MPEG4/ISO/AVC
Duration : 42 min 49 s
Bit rate : 2 593 kb/s
Width : 1 280 pixels
Height : 720 pixels
Display aspect ratio : 16:9
Frame rate mode : Constant
Frame rate : 23.976 (24000/1001) FPS
Color space : YUV
Chroma subsampling : 4:2:0
Bit depth : 8 bits
Scan type : Progressive
Bits/(Pixel*Frame) : 0.117
Stream size : 794 MiB (91%)
Default : Yes
Forced : No

Audio
ID : 2
Format : E-AC-3
Format/Info : Enhanced Audio Coding 3
Format settings, Endianness : Big
Codec ID : A_EAC3
Duration : 42 min 50 s
Bit rate mode : Constant
Bit rate : 256 kb/s
Channel(s) : 6 channels
Channel positions : Front: L C R, Side: L R, LFE
Sampling rate : 48.0 kHz
Frame rate : 187.500 FPS (256 SPF)
Compression mode : Lossy
Stream size : 78.4 MiB (9%)
Service kind : Complete Main
Default : Yes
Forced : No





Station 19 S03E04


Station 19 S03E04


Station 19 S03E04


Station 19 S03E04


Station 19 S03E04

All episodes