Index
# A B C D E F G H I J K L M N O P Q R S T U V W Y Z
Tags
Language
Tags

Featured TV Shows


Station 19 S03E05

Posted By: Tavaz
1080p (FullHD) / WEBRip IMDb
Station 19 S03E05

Station 19 S03E05
WEBRip | MKV | 1920x1080 | H264 @ 5675 kbps | E-AC-3 @ 256 kbps | 42 min 53 s | 1.78 GiB
Genre: Drama


A group of heroic firefighters at Seattle Fire Station 19—from captain to newest recruit—risk their lives and hearts both in the line of duty and off the clock. These brave men and women are like family, literally and figuratively, and together they put their own lives in jeopardy as first responders to save the lives of others.

a31442f1b3a0401ba12ea485bade297b.mkv (1.8 GB)



General
Unique ID : 176941717783772175363321898118186984212 (0x851DBC3A98A59E53598A065DF292E314)
Complete name : ./a31442f1b3a0401ba12ea485bade297b.mkv
Format : Matroska
Format version : Version 4 / Version 2
File size : 1.78 GiB
Duration : 42 min 53 s
Overall bit rate : 5 933 kb/s
Encoded date : UTC 2020-02-21 10:00:30
Writing application : mkvmerge v38.0.0 ('The Silent Type') 64-bit
Writing library : libebml v1.3.9 + libmatroska v1.5.2

Video
ID : 1
Format : AVC
Format/Info : Advanced Video Codec
Format profile : High@L4
Format settings : CABAC / 4 Ref Frames
Format settings, CABAC : Yes
Format settings, RefFrames : 4 frames
Codec ID : V_MPEG4/ISO/AVC
Duration : 42 min 53 s
Bit rate : 5 675 kb/s
Width : 1 920 pixels
Height : 1 080 pixels
Display aspect ratio : 16:9
Frame rate mode : Constant
Frame rate : 23.976 (24000/1001) FPS
Color space : YUV
Chroma subsampling : 4:2:0
Bit depth : 8 bits
Scan type : Progressive
Bits/(Pixel*Frame) : 0.114
Stream size : 1.70 GiB (96%)
Default : Yes
Forced : No

Audio
ID : 2
Format : E-AC-3
Format/Info : Enhanced Audio Coding 3
Format settings, Endianness : Big
Codec ID : A_EAC3
Duration : 42 min 53 s
Bit rate mode : Constant
Bit rate : 256 kb/s
Channel(s) : 6 channels
Channel positions : Front: L C R, Side: L R, LFE
Sampling rate : 48.0 kHz
Frame rate : 187.500 FPS (256 SPF)
Compression mode : Lossy
Stream size : 78.5 MiB (4%)
Service kind : Complete Main
Default : Yes
Forced : No





Station 19 S03E05


Station 19 S03E05


Station 19 S03E05


Station 19 S03E05


Station 19 S03E05

All episodes