Index
# A B C D E F G H I J K L M N O P Q R S T U V W Y Z
Tags
Language
Tags

Featured TV Shows


Station 19 S03E14

Posted By: Tavaz
720p (HD) / WEBRip IMDb
Station 19 S03E14

Station 19 S03E14
WEBRip | MKV | 1280x720 | H264 @ 2315 kbps | E-AC-3 @ 256 kbps | 43 min 1 s | 792 MiB
Subtitles: English
Genre: Drama


A group of heroic firefighters at Seattle Fire Station 19—from captain to newest recruit—risk their lives and hearts both in the line of duty and off the clock. These brave men and women are like family, literally and figuratively, and together they put their own lives in jeopardy as first responders to save the lives of others.

cded6d0a074042efb1a899712fd36b60.mkv (791.9 MB)



General
Unique ID : 195292595062933488227931623068641636688 (0x92EBFC55305BB60901BDF1933A9DB150)
Complete name : ./cded6d0a074042efb1a899712fd36b60.mkv
Format : Matroska
Format version : Version 4 / Version 2
File size : 792 MiB
Duration : 43 min 1 s
Overall bit rate : 2 574 kb/s
Encoded date : UTC 2020-05-01 09:00:37
Writing application : mkvmerge v43.0.0 ('The Quartermaster') 64-bit
Writing library : libebml v1.3.10 + libmatroska v1.5.2

Video
ID : 1
Format : AVC
Format/Info : Advanced Video Codec
Format profile : High@L3.1
Format settings : CABAC / 5 Ref Frames
Format settings, CABAC : Yes
Format settings, RefFrames : 5 frames
Codec ID : V_MPEG4/ISO/AVC
Duration : 43 min 1 s
Bit rate : 2 316 kb/s
Width : 1 280 pixels
Height : 720 pixels
Display aspect ratio : 16:9
Frame rate mode : Constant
Frame rate : 23.976 (24000/1001) FPS
Color space : YUV
Chroma subsampling : 4:2:0
Bit depth : 8 bits
Scan type : Progressive
Bits/(Pixel*Frame) : 0.105
Stream size : 713 MiB (90%)
Default : Yes
Forced : No

Audio
ID : 2
Format : E-AC-3
Format/Info : Enhanced Audio Coding 3
Format settings, Endianness : Big
Codec ID : A_EAC3
Duration : 43 min 1 s
Bit rate mode : Constant
Bit rate : 256 kb/s
Channel(s) : 6 channels
Channel positions : Front: L C R, Side: L R, LFE
Sampling rate : 48.0 kHz
Frame rate : 187.500 FPS (256 SPF)
Compression mode : Lossy
Stream size : 78.8 MiB (10%)
Service kind : Complete Main
Default : Yes
Forced : No

Text
ID : 3
Format : UTF-8
Codec ID : S_TEXT/UTF8
Codec ID/Info : UTF-8 Plain Text
Duration : 42 min 50 s
Bit rate : 107 b/s
Count of elements : 1112
Stream size : 33.8 KiB (0%)
Language : English
Default : No
Forced : No





Station 19 S03E14


Station 19 S03E14


Station 19 S03E14


Station 19 S03E14


Station 19 S03E14

All episodes