Index
# A B C D E F G H I J K L M N O P Q R S T U V W Y Z
Tags
Language
Tags

Featured TV Shows


Station 19 S03E16

Posted By: Tavaz
720p (HD) / WEBRip IMDb
Station 19 S03E16

Station 19 S03E16
WEBRip | MKV | 1280x720 | English | H264 @ 2458 kbps | E-AC-3 @ 256 kbps | 44 min 2 s | 856 MiB
Subtitles: English
Genre: Drama


A group of heroic firefighters at Seattle Fire Station 19—from captain to newest recruit—risk their lives and hearts both in the line of duty and off the clock. These brave men and women are like family, literally and figuratively, and together they put their own lives in jeopardy as first responders to save the lives of others.

5a8b962a9944478f88ee57fa997151f1.mkv (855.7 MB)



General
Unique ID : 111539718466732550333387171196974608834 (0x53E9C4B471B81572E7ABD44833C331C2)
Complete name : ./5a8b962a9944478f88ee57fa997151f1.mkv
Format : Matroska
Format version : Version 4 / Version 2
File size : 856 MiB
Duration : 44 min 2 s
Overall bit rate : 2 717 kb/s
Encoded date : UTC 2020-05-15 09:00:46
Writing application : mkvmerge v44.0.0 ('Domino') 64-bit
Writing library : libebml v1.3.10 + libmatroska v1.5.2

Video
ID : 1
Format : AVC
Format/Info : Advanced Video Codec
Format profile : High@L3.1
Format settings : CABAC / 5 Ref Frames
Format settings, CABAC : Yes
Format settings, RefFrames : 5 frames
Codec ID : V_MPEG4/ISO/AVC
Duration : 44 min 2 s
Bit rate : 2 459 kb/s
Width : 1 280 pixels
Height : 720 pixels
Display aspect ratio : 16:9
Frame rate mode : Constant
Frame rate : 23.976 (24000/1001) FPS
Color space : YUV
Chroma subsampling : 4:2:0
Bit depth : 8 bits
Scan type : Progressive
Bits/(Pixel*Frame) : 0.111
Stream size : 774 MiB (91%)
Language : English
Default : Yes
Forced : No

Audio
ID : 2
Format : E-AC-3
Format/Info : Enhanced Audio Coding 3
Format settings, Endianness : Big
Codec ID : A_EAC3
Duration : 44 min 2 s
Bit rate mode : Constant
Bit rate : 256 kb/s
Channel(s) : 6 channels
Channel positions : Front: L C R, Side: L R, LFE
Sampling rate : 48.0 kHz
Frame rate : 187.500 FPS (256 SPF)
Compression mode : Lossy
Stream size : 80.6 MiB (9%)
Language : English
Service kind : Complete Main
Default : Yes
Forced : No

Text
ID : 3
Format : UTF-8
Codec ID : S_TEXT/UTF8
Codec ID/Info : UTF-8 Plain Text
Duration : 43 min 52 s
Bit rate : 104 b/s
Count of elements : 1170
Stream size : 33.4 KiB (0%)
Title : English
Language : English
Default : No
Forced : No





Station 19 S03E16


Station 19 S03E16


Station 19 S03E16


Station 19 S03E16


Station 19 S03E16

All episodes