Index
# A B C D E F G H I J K L M N O P Q R S T U V W Y Z
Tags
Language
Tags

Featured TV Shows


Station 19 S03E16

Posted By: Tavaz
1080p (FullHD) / WEBRip IMDb
Station 19 S03E16

Station 19 S03E16
WEBRip | MKV | 1920x1080 | H264 @ 5451 kbps | E-AC-3 @ 256 kbps | 44 min 2 s | 1.76 GiB
Subtitles: English
Genre: Drama


A group of heroic firefighters at Seattle Fire Station 19—from captain to newest recruit—risk their lives and hearts both in the line of duty and off the clock. These brave men and women are like family, literally and figuratively, and together they put their own lives in jeopardy as first responders to save the lives of others.

fb161cb15c3e4f399dd9ad9e0a89899e.mkv (1.8 GB)



General
Unique ID : 172319396359366731993169384498666919616 (0x81A3822FFCACF0BE798DD0E35D43D6C0)
Complete name : ./fb161cb15c3e4f399dd9ad9e0a89899e.mkv
Format : Matroska
Format version : Version 4 / Version 2
File size : 1.76 GiB
Duration : 44 min 2 s
Overall bit rate : 5 710 kb/s
Encoded date : UTC 2020-05-15 09:00:39
Writing application : mkvmerge v45.0.0 ('Heaven in Pennies') 64-bit
Writing library : libebml v1.3.10 + libmatroska v1.5.2

Video
ID : 1
Format : AVC
Format/Info : Advanced Video Codec
Format profile : High@L4
Format settings : CABAC / 4 Ref Frames
Format settings, CABAC : Yes
Format settings, RefFrames : 4 frames
Codec ID : V_MPEG4/ISO/AVC
Duration : 44 min 2 s
Bit rate : 5 452 kb/s
Width : 1 920 pixels
Height : 1 080 pixels
Display aspect ratio : 16:9
Frame rate mode : Constant
Frame rate : 23.976 (24000/1001) FPS
Color space : YUV
Chroma subsampling : 4:2:0
Bit depth : 8 bits
Scan type : Progressive
Bits/(Pixel*Frame) : 0.110
Stream size : 1.68 GiB (95%)
Default : Yes
Forced : No

Audio
ID : 2
Format : E-AC-3
Format/Info : Enhanced Audio Coding 3
Format settings, Endianness : Big
Codec ID : A_EAC3
Duration : 44 min 2 s
Bit rate mode : Constant
Bit rate : 256 kb/s
Channel(s) : 6 channels
Channel positions : Front: L C R, Side: L R, LFE
Sampling rate : 48.0 kHz
Frame rate : 187.500 FPS (256 SPF)
Compression mode : Lossy
Stream size : 80.6 MiB (4%)
Service kind : Complete Main
Default : Yes
Forced : No

Text
ID : 3
Format : UTF-8
Codec ID : S_TEXT/UTF8
Codec ID/Info : UTF-8 Plain Text
Duration : 43 min 52 s
Bit rate : 103 b/s
Count of elements : 1170
Stream size : 33.3 KiB (0%)
Language : English
Default : No
Forced : No





Station 19 S03E16


Station 19 S03E16


Station 19 S03E16


Station 19 S03E16


Station 19 S03E16

All episodes