Index
# A B C D E F G H I J K L M N O P Q R S T U V W Y Z
Tags
Language
Tags

Featured TV Shows


Station 19 S04E04

Posted By: Tavaz
1080p (FullHD) / WEB-DL IMDb
Station 19 S04E04

Station 19 S04E04
WEB-DL | MKV | 1920x1080 | English | H264 @ 9435 kbps | E-AC-3 @ 640 kbps | 42 min 58 s | 3.02 GiB
Subtitles: English
Genre: Drama


A group of heroic firefighters at Seattle Fire Station 19—from captain to newest recruit—risk their lives and hearts both in the line of duty and off the clock. These brave men and women are like family, literally and figuratively, and together they put their own lives in jeopardy as first responders to save the lives of others.

ec803be38d584760bcb8acb4e2117f54.mkv (3.0 GB)



General
Unique ID : 226297076434296115899196199305084141426 (0xAA3F3B490988628C0AD5B94ACAC3FF72)
Complete name : ./ec803be38d584760bcb8acb4e2117f54.mkv
Format : Matroska
Format version : Version 4 / Version 2
File size : 3.02 GiB
Duration : 42 min 58 s
Overall bit rate : 10.1 Mb/s
Encoded date : UTC 2021-04-02 16:22:43
Writing application : mkvmerge v52.0.0 ('Secret For The Mad') 64-bit
Writing library : libebml v1.4.1 + libmatroska v1.6.2

Video
ID : 1
Format : AVC
Format/Info : Advanced Video Codec
Format profile : High@L4
Format settings : CABAC / 4 Ref Frames
Format settings, CABAC : Yes
Format settings, RefFrames : 4 frames
Codec ID : V_MPEG4/ISO/AVC
Duration : 42 min 58 s
Bit rate : 9 435 kb/s
Width : 1 920 pixels
Height : 1 080 pixels
Display aspect ratio : 16:9
Frame rate mode : Constant
Frame rate : 23.976 (24000/1001) FPS
Color space : YUV
Chroma subsampling : 4:2:0
Bit depth : 8 bits
Scan type : Progressive
Bits/(Pixel*Frame) : 0.190
Stream size : 2.83 GiB (94%)
Default : Yes
Forced : No
Color range : Limited
Color primaries : BT.709
Transfer characteristics : BT.709
Matrix coefficients : BT.709

Audio
ID : 2
Format : E-AC-3
Format/Info : Enhanced Audio Coding 3
Format settings, Endianness : Big
Codec ID : A_EAC3
Duration : 42 min 58 s
Bit rate mode : Constant
Bit rate : 640 kb/s
Channel(s) : 6 channels
Channel positions : Front: L C R, Side: L R, LFE
Sampling rate : 48.0 kHz
Frame rate : 187.500 FPS (256 SPF)
Compression mode : Lossy
Delay relative to video : -83 ms
Stream size : 197 MiB (6%)
Language : English
Service kind : Complete Main
Default : Yes
Forced : No

Text
ID : 3
Format : UTF-8
Codec ID : S_TEXT/UTF8
Codec ID/Info : UTF-8 Plain Text
Duration : 42 min 46 s
Bit rate : 96 b/s
Count of elements : 1083
Stream size : 30.3 KiB (0%)
Language : English
Default : No
Forced : No





Station 19 S04E04


Station 19 S04E04


Station 19 S04E04


Station 19 S04E04


Station 19 S04E04

All episodes