Index
# A B C D E F G H I J K L M N O P Q R S T U V W Y Z
Tags
Language
Tags

Featured TV Shows


Station 19 S04E09

Posted By: Tavaz
1080p (FullHD) / WEBRip IMDb
Station 19 S04E09

Station 19 S04E09
WEBRip | MKV | 1920x1080 | English | H265 @ 3376 kbps | E-AC-3 @ 640 kbps | 42 min 44 s | 1.22 GiB
Subtitles: English
Genre: Drama


A group of heroic firefighters at Seattle Fire Station 19—from captain to newest recruit—risk their lives and hearts both in the line of duty and off the clock. These brave men and women are like family, literally and figuratively, and together they put their own lives in jeopardy as first responders to save the lives of others.

4fdf3a054db74276b9863eeb8d49162b.mkv (1.2 GB)



General
Unique ID : 221886475522681687525807160728770430756 (0xA6EDC7DEFE743845A1F71839D375C724)
Complete name : ./4fdf3a054db74276b9863eeb8d49162b.mkv
Format : Matroska
Format version : Version 2
File size : 1.22 GiB
Duration : 42 min 44 s
Overall bit rate : 4 082 kb/s
Movie name : Station.19.S04E09.No.One.Is.Alone.1080p.WEBRip.10Bit.DDP.H265-d3g
Encoded date : UTC 2021-06-05 03:03:45
Writing application : DVDFab 12.0.3.2
Writing library : libebml v1.3.4 + libmatroska v1.4.5

Video
ID : 1
Format : HEVC
Format/Info : High Efficiency Video Coding
Format profile : Main 10@L4@Main
Codec ID : V_MPEGH/ISO/HEVC
Duration : 42 min 43 s
Bit rate : 3 377 kb/s
Width : 1 920 pixels
Height : 1 080 pixels
Display aspect ratio : 16:9
Frame rate mode : Constant
Frame rate : 23.976 (24000/1001) FPS
Color space : YUV
Chroma subsampling : 4:2:0
Bit depth : 10 bits
Bits/(Pixel*Frame) : 0.068
Stream size : 1.01 GiB (83%)
Default : Yes
Forced : No
Color range : Limited
Color primaries : BT.709
Transfer characteristics : BT.709
Matrix coefficients : BT.709

Audio
ID : 3
Format : E-AC-3
Format/Info : Enhanced Audio Coding 3
Format settings, Endianness : Big
Codec ID : A_EAC3
Duration : 42 min 44 s
Bit rate mode : Constant
Bit rate : 640 kb/s
Channel(s) : 6 channels
Channel positions : Front: L C R, Side: L R, LFE
Sampling rate : 48.0 kHz
Frame rate : 187.500 FPS (256 SPF)
Compression mode : Lossy
Stream size : 196 MiB (16%)
Language : English
Service kind : Complete Main
Default : Yes
Forced : No

Text
ID : 2
Format : PGS
Codec ID : S_HDMV/PGS
Codec ID/Info : Picture based subtitle format used on BDs/HD-DVDs
Duration : 41 min 50 s
Bit rate : 64.7 kb/s
Count of elements : 2070
Stream size : 19.4 MiB (2%)
Language : English
Default : Yes
Forced : No





Station 19 S04E09


Station 19 S04E09


Station 19 S04E09


Station 19 S04E09


Station 19 S04E09

All episodes