Index
# A B C D E F G H I J K L M N O P Q R S T U V W Y Z
Tags
Language
Tags

Featured TV Shows


Station 19 S04E11

Posted By: Tavaz
1080p (FullHD) / WEBRip IMDb
Station 19 S04E11

Station 19 S04E11
WEBRip | MKV | 1920x1080 | English | H265 @ 3365 kbps | E-AC-3 @ 640 kbps | 41 min 23 s | 1.17 GiB
Subtitles: English
Genre: Dramma


La serie segue un gruppo di vigili del fuoco di Seattle presso la Stazione 19, nelle loro vite personali e professionali.

516578cd9a374bdf825b1a54feb3be01.mkv (1.2 GB)



General
Unique ID : 174954335931910691659053344516036682255 (0x839EFABD0CA610DC86E969FD9760E20F)
Complete name : ./516578cd9a374bdf825b1a54feb3be01.mkv
Format : Matroska
Format version : Version 2
File size : 1.17 GiB
Duration : 41 min 23 s
Overall bit rate : 4 054 kb/s
Movie name : Station.19.S04E11.Here.It.Comes.Again.1080p.WEBRip.10Bit.DDP.H265-d3g
Encoded date : UTC 2021-06-05 03:12:45
Writing application : DVDFab 12.0.3.2
Writing library : libebml v1.3.4 + libmatroska v1.4.5

Video
ID : 1
Format : HEVC
Format/Info : High Efficiency Video Coding
Format profile : Main 10@L4@Main
Codec ID : V_MPEGH/ISO/HEVC
Duration : 41 min 23 s
Bit rate : 3 366 kb/s
Width : 1 920 pixels
Height : 1 080 pixels
Display aspect ratio : 16:9
Frame rate mode : Constant
Frame rate : 23.976 (24000/1001) FPS
Color space : YUV
Chroma subsampling : 4:2:0
Bit depth : 10 bits
Bits/(Pixel*Frame) : 0.068
Stream size : 996 MiB (83%)
Default : Yes
Forced : No
Color range : Limited
Color primaries : BT.709
Transfer characteristics : BT.709
Matrix coefficients : BT.709

Audio
ID : 2
Format : E-AC-3
Format/Info : Enhanced Audio Coding 3
Format settings, Endianness : Big
Codec ID : A_EAC3
Duration : 41 min 23 s
Bit rate mode : Constant
Bit rate : 640 kb/s
Channel(s) : 6 channels
Channel positions : Front: L C R, Side: L R, LFE
Sampling rate : 48.0 kHz
Frame rate : 187.500 FPS (256 SPF)
Compression mode : Lossy
Stream size : 189 MiB (16%)
Language : English
Service kind : Complete Main
Default : Yes
Forced : No

Text
ID : 3
Format : PGS
Codec ID : S_HDMV/PGS
Codec ID/Info : Picture based subtitle format used on BDs/HD-DVDs
Duration : 40 min 48 s
Bit rate : 47.0 kb/s
Count of elements : 2158
Stream size : 13.7 MiB (1%)
Language : English
Default : Yes
Forced : No





Station 19 S04E11


Station 19 S04E11


Station 19 S04E11


Station 19 S04E11


Station 19 S04E11

All episodes