Index
# A B C D E F G H I J K L M N O P Q R S T U V W Y Z
Tags
Language
Tags

Featured TV Shows


Station 19 S05E12

Posted By: Tavaz
1080p (FullHD) / WEBRip IMDb
Station 19 S05E12

Station 19 S05E12
WEBRip | MKV | 1920x1080 | English | H264 @ 9376 kbps | E-AC-3 @ 640 kbps | 42 min 46 s | 2.99 GiB
Subtitles: English
Genre: Drama


A group of heroic firefighters at Seattle Fire Station 19—from captain to newest recruit—risk their lives and hearts both in the line of duty and off the clock. These brave men and women are like family, literally and figuratively, and together they put their own lives in jeopardy as first responders to save the lives of others.

745ac8a911d54f9ea60c6dbf5d6feb93.mkv (3.0 GB)



General
Unique ID : 285222919431908539320907962410789037108 (0xD693EFA69AF8F7411744D7F6E05CE434)
Complete name : ./745ac8a911d54f9ea60c6dbf5d6feb93.mkv
Format : Matroska
Format version : Version 4 / Version 2
File size : 2.99 GiB
Duration : 42 min 46 s
Overall bit rate : 10.0 Mb/s
Movie name : Station 19 - S05E12 - In My Tree
Writing application : mkvmerge v64.0.0 ('Willows') 64-bit
Writing library : libebml v1.4.2 + libmatroska v1.6.4
IMDB : tt7053188
TMDB : tv/76773
TVDB : 341852

Video
ID : 1
Format : AVC
Format/Info : Advanced Video Codec
Format profile : High@L4
Format settings : CABAC / 4 Ref Frames
Format settings, CABAC : Yes
Format settings, RefFrames : 4 frames
Codec ID : V_MPEG4/ISO/AVC
Duration : 42 min 46 s
Bit rate mode : Constant
Bit rate : 9 377 kb/s
Nominal bit rate : 10 000 kb/s
Width : 1 920 pixels
Height : 1 080 pixels
Display aspect ratio : 16:9
Frame rate mode : Constant
Frame rate : 23.976 (24000/1001) FPS
Color space : YUV
Chroma subsampling : 4:2:0
Bit depth : 8 bits
Scan type : Progressive
Bits/(Pixel*Frame) : 0.189
Stream size : 2.80 GiB (94%)
Default : No
Forced : No
Color range : Limited
Color primaries : BT.709
Transfer characteristics : BT.709
Matrix coefficients : BT.709

Audio
ID : 2
Format : E-AC-3
Format/Info : Enhanced Audio Coding 3
Format settings, Endianness : Big
Codec ID : A_EAC3
Duration : 42 min 46 s
Bit rate mode : Constant
Bit rate : 640 kb/s
Channel(s) : 6 channels
Channel positions : Front: L C R, Side: L R, LFE
Sampling rate : 48.0 kHz
Frame rate : 187.500 FPS (256 SPF)
Compression mode : Lossy
Stream size : 196 MiB (6%)
Language : English
Service kind : Complete Main
Default : No
Forced : No

Text #1
ID : 3
Format : UTF-8
Codec ID : S_TEXT/UTF8
Codec ID/Info : UTF-8 Plain Text
Duration : 41 min 41 s
Bit rate : 95 b/s
Count of elements : 903
Stream size : 29.3 KiB (0%)
Language : English
Default : No
Forced : No

Text #2
ID : 4
Format : UTF-8
Codec ID : S_TEXT/UTF8
Codec ID/Info : UTF-8 Plain Text
Duration : 42 min 27 s
Bit rate : 100 b/s
Count of elements : 992
Stream size : 31.2 KiB (0%)
Title : SDH
Language : English
Default : No
Forced : No

Menu
00:42:41.000 : en:Credits





Station 19 S05E12


Station 19 S05E12


Station 19 S05E12


Station 19 S05E12


Station 19 S05E12

All episodes