Index
# A B C D E F G H I J K L M N O P Q R S T U V W Y Z
Tags
Language
Tags

Featured TV Shows


Steven Universe S02E11

Posted By: Tavaz
720p (HD) / WEB-DL IMDb
Steven Universe S02E11

Steven Universe S02E11
WEB-DL | MKV | 1280x720 | English | H264 @ 3864 kbps | AAC @ 154 kbps | 11 min 25 s | 328 MiB
Subtitles: English
Genre: Animazione, Commedia, Famiglia


Nella cittadina marittima statunitense di Beach City vivono le Crystal Gems, un gruppo di Gemme (una specie extraterrestre ultramillenaria, munita di tecnologia avanzatissima e dotata di poteri sovrumani e "magici") dedite a proteggere la Terra e l'intera umanità da qualsivoglia minaccia: esso - formato dalle uniche Gemme rimaste sul pianeta - è composto da Garnet, Ametista e Perla; a loro si aggiunge anche Steven, un ragazzino metà Gemma e metà umano che ha ereditato la pietra da Quarzo Rosa, sua madre nonché precedente leader delle Crystal Gems. I corpi delle Gemme, che hanno sembianze femminili, sono proiezioni di energia solida scaturite dalla loro relativa gemma, incastonata in questo corpo e dalla quale possono perfino materializzare armi "magiche" da usare in combattimento.

8111579f72274dffb8aaa86d421960d6.mkv (328.5 MB)



General
Unique ID : 172343236003590396148145624699825183635 (0x81A8199299A4EACBA7A0C44E82EA5B93)
Complete name : ./8111579f72274dffb8aaa86d421960d6.mkv
Format : Matroska
Format version : Version 4 / Version 2
File size : 328 MiB
Duration : 11 min 25 s
Overall bit rate : 4 022 kb/s
Encoded date : UTC 2015-06-18 15:10:17
Writing application : mkvmerge v7.9.0 ('Birds') 64bit
Writing library : libebml v1.3.1 + libmatroska v1.4.2

Video
ID : 1
Format : AVC
Format/Info : Advanced Video Codec
Format profile : High@L3.1
Format settings : 2 Ref Frames
Format settings, CABAC : No
Format settings, RefFrames : 2 frames
Codec ID : V_MPEG4/ISO/AVC
Duration : 11 min 25 s
Bit rate : 3 864 kb/s
Width : 1 280 pixels
Height : 720 pixels
Display aspect ratio : 16:9
Frame rate mode : Constant
Frame rate : 23.976 FPS
Color space : YUV
Chroma subsampling : 4:2:0
Bit depth : 8 bits
Scan type : Progressive
Bits/(Pixel*Frame) : 0.175
Stream size : 316 MiB (96%)
Language : English
Default : No
Forced : No
Color range : Limited
Color primaries : BT.709
Transfer characteristics : BT.709
Matrix coefficients : BT.709

Audio
ID : 2
Format : AAC
Format/Info : Advanced Audio Codec
Format profile : LC
Codec ID : A_AAC-2
Duration : 11 min 25 s
Bit rate : 154 kb/s
Channel(s) : 2 channels
Channel positions : Front: L R
Sampling rate : 48.0 kHz
Frame rate : 46.875 FPS (1024 SPF)
Compression mode : Lossy
Stream size : 12.6 MiB (4%)
Language : English
Default : No
Forced : No

Text
ID : 3
Format : UTF-8
Codec ID : S_TEXT/UTF8
Codec ID/Info : UTF-8 Plain Text
Duration : 11 min 24 s
Bit rate : 75 b/s
Count of elements : 264
Stream size : 6.35 KiB (0%)
Language : English
Default : Yes
Forced : No





Steven Universe S02E11


Steven Universe S02E11


Steven Universe S02E11


Steven Universe S02E11


Steven Universe S02E11

All episodes