Featured TV Shows


Steven Universe S05E03

Posted By: Tavaz
720p (HD) / WEB-DL IMDb
Steven Universe S05E03

Steven Universe S05E03
WEB-DL | MKV | 1280x720 | English | H264 @ 5027 kbps | AAC @ 153 kbps | 11 min 25 s | 424 MiB
Subtitles: English
Genre: Animazione, Commedia

A young boy takes his mother's place in a group of gemstone-based beings, and must learn to control his powers.

781e462c68f14208839dd4aa28f1929d.mkv (423.6 MB)



General
Unique ID : 201679869578860856129307071791308597834 (0x97BA2147B180DAC59679FD607DE1EA4A)
Complete name : ./781e462c68f14208839dd4aa28f1929d.mkv
Format : Matroska
Format version : Version 4 / Version 2
File size : 424 MiB
Duration : 11 min 25 s
Overall bit rate : 5 184 kb/s
Encoded date : UTC 2017-05-30 11:25:53
Writing application : mkvmerge v11.0.0 ('Alive') 64bit
Writing library : libebml v1.3.4 + libmatroska v1.4.5

Video
ID : 1
Format : AVC
Format/Info : Advanced Video Codec
Format profile : High@L3.1
Format settings : 2 Ref Frames
Format settings, CABAC : No
Format settings, RefFrames : 2 frames
Codec ID : V_MPEG4/ISO/AVC
Duration : 11 min 25 s
Bit rate : 5 028 kb/s
Width : 1 280 pixels
Height : 720 pixels
Display aspect ratio : 16:9
Frame rate mode : Constant
Frame rate : 23.976 (24000/1001) FPS
Color space : YUV
Chroma subsampling : 4:2:0
Bit depth : 8 bits
Scan type : Progressive
Bits/(Pixel*Frame) : 0.228
Stream size : 411 MiB (97%)
Language : English
Default : Yes
Forced : No
Color range : Limited
Color primaries : BT.709
Transfer characteristics : BT.709
Matrix coefficients : BT.709

Audio
ID : 2
Format : AAC
Format/Info : Advanced Audio Codec
Format profile : LC
Codec ID : A_AAC-2
Duration : 11 min 25 s
Bit rate : 154 kb/s
Channel(s) : 2 channels
Channel positions : Front: L R
Sampling rate : 48.0 kHz
Frame rate : 46.875 FPS (1024 SPF)
Compression mode : Lossy
Stream size : 12.6 MiB (3%)
Language : English
Default : Yes
Forced : No

Text
ID : 3
Format : UTF-8
Codec ID : S_TEXT/UTF8
Codec ID/Info : UTF-8 Plain Text
Duration : 11 min 14 s
Bit rate : 65 b/s
Count of elements : 225
Stream size : 5.41 KiB (0%)
Language : English
Default : No
Forced : No





Steven Universe S05E03


Steven Universe S05E03


Steven Universe S05E03


Steven Universe S05E03


Steven Universe S05E03

All episodes