Featured TV Shows


Steven Universe S05E05

Posted By: Tavaz
SD / WEB-DL IMDb
Steven Universe S05E05

Steven Universe S05E05
WEB-DL | MKV | 640x480 | English | H264 @ 1624 kbps | AAC @ 123 kbps | 11 min 13 s | 140 MiB
Subtitles: English
Genre: Animazione, Commedia

A young boy takes his mother's place in a group of gemstone-based beings, and must learn to control his powers.

5d23bc7868f54f71aa1982764d9c2b33.mkv (140.5 MB)



General
Unique ID : 224222882233426136727901460200122114374 (0xA8AFC19D994AD15E9C67572ED36A6146)
Complete name : ./5d23bc7868f54f71aa1982764d9c2b33.mkv
Format : Matroska
Format version : Version 4 / Version 2
File size : 140 MiB
Duration : 11 min 13 s
Overall bit rate : 1 750 kb/s
Encoded date : UTC 2017-12-08 00:21:22
Writing application : mkvmerge v18.0.0 ('Apricity') 64-bit
Writing library : libebml v1.3.5 + libmatroska v1.4.8

Video
ID : 1
Format : AVC
Format/Info : Advanced Video Codec
Format profile : Baseline@L3
Format settings : 1 Ref Frames
Format settings, CABAC : No
Format settings, RefFrames : 1 frame
Codec ID : V_MPEG4/ISO/AVC
Duration : 11 min 13 s
Bit rate : 1 624 kb/s
Width : 640 pixels
Height : 480 pixels
Display aspect ratio : 16:9
Frame rate mode : Constant
Frame rate : 23.976 (24000/1001) FPS
Color space : YUV
Chroma subsampling : 4:2:0
Bit depth : 8 bits
Scan type : Progressive
Bits/(Pixel*Frame) : 0.221
Stream size : 130 MiB (93%)
Language : English
Default : Yes
Forced : No
Color range : Limited
Color primaries : BT.601 NTSC
Transfer characteristics : BT.709
Matrix coefficients : BT.601

Audio
ID : 2
Format : AAC
Format/Info : Advanced Audio Codec
Format profile : LC
Codec ID : A_AAC-2
Duration : 11 min 13 s
Bit rate : 124 kb/s
Channel(s) : 2 channels
Channel positions : Front: L R
Sampling rate : 44.1 kHz
Frame rate : 43.066 FPS (1024 SPF)
Compression mode : Lossy
Stream size : 9.93 MiB (7%)
Language : English
Default : Yes
Forced : No

Text
ID : 3
Format : UTF-8
Codec ID : S_TEXT/UTF8
Codec ID/Info : UTF-8 Plain Text
Duration : 11 min 7 s
Bit rate : 100 b/s
Count of elements : 254
Stream size : 8.15 KiB (0%)
Language : English
Default : No
Forced : No





Steven Universe S05E05


Steven Universe S05E05


Steven Universe S05E05


Steven Universe S05E05


Steven Universe S05E05

All episodes