Featured TV Shows


Steven Universe S05E14

Posted By: Tavaz
1080p (FullHD) / WEB-DL IMDb
Steven Universe S05E14

Steven Universe S05E14
WEB-DL | MKV | 1920x1080 | English | H264 @ 7401 kbps | AAC @ 144 kbps | 11 min 10 s | 603 MiB
Subtitles: English
Genre: Animazione, Commedia

A young boy takes his mother's place in a group of gemstone-based beings, and must learn to control his powers.

Steven.Universe.S05E14.The.Big.Show.1080p.iT.WEB-DL.AAC2.0.H.264-iT00NZ.mkv (603.3 MB)



General
Unique ID : 217510177544040512503149176578261869936 (0xA3A2EFB8D5B53C5F907ABA0A49976570)
Complete name : ./Steven.Universe.S05E14.The.Big.Show.1080p.iT.WEB-DL.AAC2.0.H.264-iT00NZ.mkv
Format : Matroska
Format version : Version 4 / Version 2
File size : 603 MiB
Duration : 11 min 10 s
Overall bit rate : 7 546 kb/s
Encoded date : UTC 2018-03-26 17:53:30
Writing application : mkvmerge v18.0.0 ('Apricity') 64-bit
Writing library : libebml v1.3.5 + libmatroska v1.4.8

Video
ID : 1
Format : AVC
Format/Info : Advanced Video Codec
Format profile : High@L4
Format settings : CABAC / 4 Ref Frames
Format settings, CABAC : Yes
Format settings, RefFrames : 4 frames
Codec ID : V_MPEG4/ISO/AVC
Duration : 11 min 10 s
Bit rate : 7 402 kb/s
Width : 1 920 pixels
Height : 1 080 pixels
Display aspect ratio : 16:9
Frame rate mode : Constant
Frame rate : 23.976 (24000/1001) FPS
Color space : YUV
Chroma subsampling : 4:2:0
Bit depth : 8 bits
Scan type : Progressive
Bits/(Pixel*Frame) : 0.149
Stream size : 592 MiB (98%)
Language : English
Default : Yes
Forced : No
Color range : Limited
Color primaries : BT.709
Transfer characteristics : BT.709
Matrix coefficients : BT.709

Audio
ID : 3
Format : AAC
Format/Info : Advanced Audio Codec
Format profile : LC
Codec ID : A_AAC-2
Duration : 11 min 10 s
Bit rate : 144 kb/s
Channel(s) : 2 channels
Channel positions : Front: L R
Sampling rate : 48.0 kHz
Frame rate : 46.875 FPS (1024 SPF)
Compression mode : Lossy
Delay relative to video : 17 ms
Stream size : 11.4 MiB (2%)
Language : English
Default : Yes
Forced : No

Text
ID : 2
Format : UTF-8
Codec ID : S_TEXT/UTF8
Codec ID/Info : UTF-8 Plain Text
Duration : 11 min 5 s
Bit rate : 100 b/s
Count of elements : 258
Stream size : 8.12 KiB (0%)
Language : English
Default : No
Forced : No





Steven Universe S05E14


Steven Universe S05E14


Steven Universe S05E14


Steven Universe S05E14


Steven Universe S05E14

All episodes