Featured TV Shows


Steven Universe S05E18

Posted By: Tavaz
1080p (FullHD) / WEB-DL IMDb
Steven Universe S05E18

Steven Universe S05E18
WEB-DL | MKV | 1920x1080 | English | H264 @ 5453 kbps | AAC @ 153 kbps | 11 min 9 s | 448 MiB
Subtitles: English
Genre: Animazione, Commedia

A young boy takes his mother's place in a group of gemstone-based beings, and must learn to control his powers.

a2204c734a164af8a5948c6efb786786.mkv (447.6 MB)



General
Unique ID : 174044255119657718317522152932509672350 (0x82EFB44A467DE4F786E8F5D7D13EE39E)
Complete name : ./a2204c734a164af8a5948c6efb786786.mkv
Format : Matroska
Format version : Version 4 / Version 2
File size : 448 MiB
Duration : 11 min 9 s
Overall bit rate : 5 609 kb/s
Encoded date : UTC 2018-05-08 08:01:49
Writing application : mkvmerge v18.0.0 ('Apricity') 64-bit
Writing library : libebml v1.3.5 + libmatroska v1.4.8

Video
ID : 1
Format : AVC
Format/Info : Advanced Video Codec
Format profile : High@L4
Format settings : CABAC / 4 Ref Frames
Format settings, CABAC : Yes
Format settings, RefFrames : 4 frames
Codec ID : V_MPEG4/ISO/AVC
Duration : 11 min 9 s
Bit rate : 5 454 kb/s
Width : 1 920 pixels
Height : 1 080 pixels
Display aspect ratio : 16:9
Frame rate mode : Constant
Frame rate : 23.976 (24000/1001) FPS
Color space : YUV
Chroma subsampling : 4:2:0
Bit depth : 8 bits
Scan type : Progressive
Bits/(Pixel*Frame) : 0.110
Stream size : 435 MiB (97%)
Language : English
Default : Yes
Forced : No
Color range : Limited
Color primaries : BT.709
Transfer characteristics : BT.709
Matrix coefficients : BT.709

Audio
ID : 2
Format : AAC
Format/Info : Advanced Audio Codec
Format profile : LC
Codec ID : A_AAC-2
Duration : 11 min 9 s
Bit rate : 153 kb/s
Channel(s) : 2 channels
Channel positions : Front: L R
Sampling rate : 48.0 kHz
Frame rate : 46.875 FPS (1024 SPF)
Compression mode : Lossy
Delay relative to video : 20 ms
Stream size : 12.2 MiB (3%)
Language : English
Default : Yes
Forced : No

Text
ID : 3
Format : UTF-8
Codec ID : S_TEXT/UTF8
Codec ID/Info : UTF-8 Plain Text
Duration : 11 min 4 s
Bit rate : 67 b/s
Count of elements : 201
Stream size : 5.48 KiB (0%)
Language : English
Default : No
Forced : No





Steven Universe S05E18


Steven Universe S05E18


Steven Universe S05E18


Steven Universe S05E18


Steven Universe S05E18

All episodes