Featured TV Shows


Steven Universe S05E19

Posted By: Tavaz
SD / WEB-DL IMDb
Steven Universe S05E19

Steven Universe S05E19
WEB-DL | MKV | 640x480 | English | H264 @ 1527 kbps | AAC @ 125 kbps | 11 min 12 s | 133 MiB
Subtitles: English
Genre: Animazione, Commedia

A young boy takes his mother's place in a group of gemstone-based beings, and must learn to control his powers.

734cb1cfaeac460a9308f091d1d00469.mkv (132.6 MB)



General
Unique ID : 182395178573173683988893150616617780483 (0x8938089AD5BCAD1CA490579B823C8503)
Complete name : ./734cb1cfaeac460a9308f091d1d00469.mkv
Format : Matroska
Format version : Version 4 / Version 2
File size : 133 MiB
Duration : 11 min 12 s
Overall bit rate : 1 655 kb/s
Encoded date : UTC 2018-07-06 08:37:48
Writing application : mkvmerge v18.0.0 ('Apricity') 64-bit
Writing library : libebml v1.3.5 + libmatroska v1.4.8

Video
ID : 1
Format : AVC
Format/Info : Advanced Video Codec
Format profile : Baseline@L3
Format settings : 1 Ref Frames
Format settings, CABAC : No
Format settings, RefFrames : 1 frame
Codec ID : V_MPEG4/ISO/AVC
Duration : 11 min 12 s
Bit rate : 1 527 kb/s
Width : 640 pixels
Height : 480 pixels
Display aspect ratio : 16:9
Frame rate mode : Constant
Frame rate : 23.976 (24000/1001) FPS
Color space : YUV
Chroma subsampling : 4:2:0
Bit depth : 8 bits
Scan type : Progressive
Bits/(Pixel*Frame) : 0.207
Stream size : 122 MiB (92%)
Language : English
Default : Yes
Forced : No
Color range : Limited
Color primaries : BT.601 NTSC
Transfer characteristics : BT.709
Matrix coefficients : BT.601

Audio
ID : 2
Format : AAC
Format/Info : Advanced Audio Codec
Format profile : LC
Codec ID : A_AAC-2
Duration : 11 min 12 s
Bit rate : 125 kb/s
Channel(s) : 2 channels
Channel positions : Front: L R
Sampling rate : 44.1 kHz
Frame rate : 43.066 FPS (1024 SPF)
Compression mode : Lossy
Stream size : 10.0 MiB (8%)
Language : English
Default : Yes
Forced : No

Text
ID : 3
Format : UTF-8
Codec ID : S_TEXT/UTF8
Codec ID/Info : UTF-8 Plain Text
Duration : 11 min 9 s
Bit rate : 86 b/s
Count of elements : 235
Stream size : 7.09 KiB (0%)
Language : English
Default : No
Forced : No





Steven Universe S05E19


Steven Universe S05E19


Steven Universe S05E19


Steven Universe S05E19


Steven Universe S05E19

All episodes