Featured TV Shows


Steven Universe S05E20

Posted By: Tavaz
SD / WEB-DL IMDb
Steven Universe S05E20

Steven Universe S05E20
WEB-DL | MKV | 640x480 | English | H264 @ 1322 kbps | AAC @ 124 kbps | 11 min 9 s | 116 MiB
Subtitles: English
Genre: Animazione, Commedia

A young boy takes his mother's place in a group of gemstone-based beings, and must learn to control his powers.

a6d81b1a2e4b4cdbbdcb87efe3cb9b6f.mkv (115.6 MB)



General
Unique ID : 228006030063545734730822321689190542903 (0xAB885D345933CDEDA39A35A82A352E37)
Complete name : ./a6d81b1a2e4b4cdbbdcb87efe3cb9b6f.mkv
Format : Matroska
Format version : Version 4 / Version 2
File size : 116 MiB
Duration : 11 min 9 s
Overall bit rate : 1 449 kb/s
Encoded date : UTC 2018-07-06 08:37:48
Writing application : mkvmerge v18.0.0 ('Apricity') 64-bit
Writing library : libebml v1.3.5 + libmatroska v1.4.8

Video
ID : 1
Format : AVC
Format/Info : Advanced Video Codec
Format profile : Baseline@L3
Format settings : 1 Ref Frames
Format settings, CABAC : No
Format settings, RefFrames : 1 frame
Codec ID : V_MPEG4/ISO/AVC
Duration : 11 min 9 s
Bit rate : 1 322 kb/s
Width : 640 pixels
Height : 480 pixels
Display aspect ratio : 16:9
Frame rate mode : Constant
Frame rate : 23.976 (24000/1001) FPS
Color space : YUV
Chroma subsampling : 4:2:0
Bit depth : 8 bits
Scan type : Progressive
Bits/(Pixel*Frame) : 0.180
Stream size : 106 MiB (91%)
Language : English
Default : Yes
Forced : No
Color range : Limited
Color primaries : BT.601 NTSC
Transfer characteristics : BT.709
Matrix coefficients : BT.601

Audio
ID : 2
Format : AAC
Format/Info : Advanced Audio Codec
Format profile : LC
Codec ID : A_AAC-2
Duration : 11 min 9 s
Bit rate : 124 kb/s
Channel(s) : 2 channels
Channel positions : Front: L R
Sampling rate : 44.1 kHz
Frame rate : 43.066 FPS (1024 SPF)
Compression mode : Lossy
Delay relative to video : 19 ms
Stream size : 9.90 MiB (9%)
Language : English
Default : Yes
Forced : No

Text
ID : 3
Format : UTF-8
Codec ID : S_TEXT/UTF8
Codec ID/Info : UTF-8 Plain Text
Duration : 11 min 1 s
Bit rate : 77 b/s
Count of elements : 218
Stream size : 6.29 KiB (0%)
Language : English
Default : No
Forced : No





Steven Universe S05E20


Steven Universe S05E20


Steven Universe S05E20


Steven Universe S05E20


Steven Universe S05E20

All episodes