Featured TV Shows


Steven Universe S05E24

Posted By: Tavaz
720p (HD) / WEB-DL IMDb
Steven Universe S05E24

Steven Universe S05E24
WEB-DL | MKV | 1280x720 | English | H264 @ 4055 kbps | AAC @ 155 kbps | 11 min 32 s | 348 MiB
Subtitles: English
Genre: Animazione, Commedia

A young boy takes his mother's place in a group of gemstone-based beings, and must learn to control his powers.

995dee87a32240de8ac8cba31c0bfac1.mkv (348.1 MB)



General
Unique ID : 36105097333554455996618598696492372890 (0x1B2996BC401042D5E04D86770C62939A)
Complete name : ./995dee87a32240de8ac8cba31c0bfac1.mkv
Format : Matroska
Format version : Version 4 / Version 2
File size : 348 MiB
Duration : 11 min 32 s
Overall bit rate : 4 214 kb/s
Encoded date : UTC 2018-07-31 04:46:15
Writing application : mkvmerge v25.0.0 ('Prog Noir') 64-bit
Writing library : libebml v1.3.6 + libmatroska v1.4.9

Video
ID : 1
Format : AVC
Format/Info : Advanced Video Codec
Format profile : High@L3.1
Format settings : 2 Ref Frames
Format settings, CABAC : No
Format settings, RefFrames : 2 frames
Codec ID : V_MPEG4/ISO/AVC
Duration : 11 min 32 s
Bit rate : 4 055 kb/s
Width : 1 280 pixels
Height : 720 pixels
Display aspect ratio : 16:9
Frame rate mode : Constant
Frame rate : 23.976 (24000/1001) FPS
Color space : YUV
Chroma subsampling : 4:2:0
Bit depth : 8 bits
Scan type : Progressive
Bits/(Pixel*Frame) : 0.184
Stream size : 335 MiB (96%)
Language : English
Default : Yes
Forced : No
Color range : Limited
Color primaries : BT.709
Transfer characteristics : BT.709
Matrix coefficients : BT.709

Audio
ID : 2
Format : AAC
Format/Info : Advanced Audio Codec
Format profile : LC
Codec ID : A_AAC-2
Duration : 11 min 32 s
Bit rate : 156 kb/s
Channel(s) : 2 channels
Channel positions : Front: L R
Sampling rate : 48.0 kHz
Frame rate : 46.875 FPS (1024 SPF)
Compression mode : Lossy
Stream size : 12.9 MiB (4%)
Language : English
Default : Yes
Forced : No

Text
ID : 3
Format : UTF-8
Codec ID : S_TEXT/UTF8
Codec ID/Info : UTF-8 Plain Text
Duration : 11 min 27 s
Bit rate : 87 b/s
Count of elements : 250
Stream size : 7.36 KiB (0%)
Language : English
Default : No
Forced : No





Steven Universe S05E24


Steven Universe S05E24


Steven Universe S05E24


Steven Universe S05E24


Steven Universe S05E24

All episodes