Featured TV Shows


Steven Universe S05E25

Posted By: Tavaz
1080p (FullHD) / WEB-DL IMDb
Steven Universe S05E25

Steven Universe S05E25
WEB-DL | MKV | 1920x1080 | English | H264 @ 4682 kbps | AAC @ 132 kbps | 11 min 8 s | 384 MiB
Subtitles: English
Genre: Animazione, Commedia

A young boy takes his mother's place in a group of gemstone-based beings, and must learn to control his powers.

47a06096cf4647c9b8b680d30e23887c.mkv (383.9 MB)



General
Unique ID : 35063620184824363521595470558612989042 (0x1A6101F28C99B8F4092CE721BFB8A472)
Complete name : ./47a06096cf4647c9b8b680d30e23887c.mkv
Format : Matroska
Format version : Version 4 / Version 2
File size : 384 MiB
Duration : 11 min 8 s
Overall bit rate : 4 817 kb/s
Encoded date : UTC 2018-12-26 00:34:48
Writing application : mkvmerge v25.0.0 ('Prog Noir') 64-bit
Writing library : libebml v1.3.6 + libmatroska v1.4.9

Video
ID : 1
Format : AVC
Format/Info : Advanced Video Codec
Format profile : High@L4
Format settings : CABAC / 4 Ref Frames
Format settings, CABAC : Yes
Format settings, RefFrames : 4 frames
Codec ID : V_MPEG4/ISO/AVC
Duration : 11 min 8 s
Bit rate : 4 682 kb/s
Width : 1 920 pixels
Height : 1 080 pixels
Display aspect ratio : 16:9
Frame rate mode : Constant
Frame rate : 23.976 (24000/1001) FPS
Color space : YUV
Chroma subsampling : 4:2:0
Bit depth : 8 bits
Scan type : Progressive
Bits/(Pixel*Frame) : 0.094
Stream size : 373 MiB (97%)
Language : English
Default : Yes
Forced : No
Color range : Limited
Color primaries : BT.709
Transfer characteristics : BT.709
Matrix coefficients : BT.709

Audio
ID : 2
Format : AAC
Format/Info : Advanced Audio Codec
Format profile : LC
Codec ID : A_AAC-2
Duration : 11 min 8 s
Bit rate : 132 kb/s
Channel(s) : 2 channels
Channel positions : Front: L R
Sampling rate : 48.0 kHz
Frame rate : 46.875 FPS (1024 SPF)
Compression mode : Lossy
Delay relative to video : 8 ms
Stream size : 10.6 MiB (3%)
Language : English
Default : Yes
Forced : No

Text
ID : 3
Format : UTF-8
Codec ID : S_TEXT/UTF8
Codec ID/Info : UTF-8 Plain Text
Duration : 10 min 56 s
Bit rate : 87 b/s
Count of elements : 237
Stream size : 6.98 KiB (0%)
Language : English
Default : No
Forced : No





Steven Universe S05E25


Steven Universe S05E25


Steven Universe S05E25


Steven Universe S05E25


Steven Universe S05E25

All episodes