Featured TV Shows


Steven Universe S05E28

Posted By: Tavaz
SD / WEB-DL IMDb
Steven Universe S05E28

Steven Universe S05E28
WEB-DL | MKV | 640x480 | English | H264 @ 1375 kbps | AAC @ 125 kbps | 45 min 10 s | 486 MiB
Subtitles: English
Genre: Animazione, Commedia

A young boy takes his mother's place in a group of gemstone-based beings, and must learn to control his powers.

a072107af5d64486b227e6d62c0ab1fd.mkv (485.6 MB)



General
Unique ID : 212223221471108822050122121369079113257 (0x9FA8B4A993F0A684EF0353AA82B9E629)
Complete name : ./a072107af5d64486b227e6d62c0ab1fd.mkv
Format : Matroska
Format version : Version 4 / Version 2
File size : 486 MiB
Duration : 45 min 10 s
Overall bit rate : 1 503 kb/s
Encoded date : UTC 2019-01-23 02:32:22
Writing application : mkvmerge v25.0.0 ('Prog Noir') 64-bit
Writing library : libebml v1.3.6 + libmatroska v1.4.9

Video
ID : 1
Format : AVC
Format/Info : Advanced Video Codec
Format profile : Baseline@L3
Format settings : 1 Ref Frames
Format settings, CABAC : No
Format settings, RefFrames : 1 frame
Codec ID : V_MPEG4/ISO/AVC
Duration : 45 min 9 s
Bit rate : 1 376 kb/s
Width : 640 pixels
Height : 480 pixels
Display aspect ratio : 16:9
Frame rate mode : Constant
Frame rate : 23.976 (24000/1001) FPS
Color space : YUV
Chroma subsampling : 4:2:0
Bit depth : 8 bits
Scan type : Progressive
Bits/(Pixel*Frame) : 0.187
Stream size : 444 MiB (92%)
Language : English
Default : Yes
Forced : No
Color range : Limited
Color primaries : BT.601 NTSC
Transfer characteristics : BT.709
Matrix coefficients : BT.601

Audio
ID : 2
Format : AAC
Format/Info : Advanced Audio Codec
Format profile : LC
Codec ID : A_AAC-2
Duration : 45 min 10 s
Bit rate : 125 kb/s
Channel(s) : 2 channels
Channel positions : Front: L R
Sampling rate : 44.1 kHz
Frame rate : 43.066 FPS (1024 SPF)
Compression mode : Lossy
Stream size : 40.4 MiB (8%)
Language : English
Default : Yes
Forced : No

Text
ID : 3
Format : UTF-8
Codec ID : S_TEXT/UTF8
Codec ID/Info : UTF-8 Plain Text
Duration : 45 min 2 s
Bit rate : 68 b/s
Count of elements : 1010
Stream size : 22.6 KiB (0%)
Language : English
Default : No
Forced : No





Steven Universe S05E28


Steven Universe S05E28


Steven Universe S05E28


Steven Universe S05E28


Steven Universe S05E28

All episodes