Featured TV Shows


Strange Angel S01E01

Posted By: Tavaz
720p (HD) / WEB-DL IMDb
Strange Angel S01E01

Strange Angel S01E01
WEB-DL | MKV | 1280x688 | English | H264 @ 3351 kbps | E-AC-3 @ 640 kbps | 54 min 27 s | 1.52 GiB
Subtitles: English
Genre: Drama

The story of the mysterious and brilliant Jack Parsons in 1940s Los Angeles as by day he helps birth the discipline of American rocketry and by night is a performer of sex magick rituals and a disciple to occultist Aleister Crowley.

59d97b567a924208990c8c5d3c059c1e.mkv (1.5 GB)



General
Unique ID : 11721687313089344385233601227562530314 (0x8D183CDD5144C06DA9FEEB67159B60A)
Complete name : ./59d97b567a924208990c8c5d3c059c1e.mkv
Format : Matroska
Format version : Version 4 / Version 2
File size : 1.52 GiB
Duration : 54 min 27 s
Overall bit rate : 3 993 kb/s
Encoded date : UTC 2018-06-14 07:30:04
Writing application : mkvmerge v21.0.0 ('Tardigrades Will Inherit The Earth') 64-bit
Writing library : libebml v1.3.5 + libmatroska v1.4.8

Video
ID : 1
Format : AVC
Format/Info : Advanced Video Codec
Format profile : High@L3.1
Format settings : CABAC / 5 Ref Frames
Format settings, CABAC : Yes
Format settings, RefFrames : 5 frames
Codec ID : V_MPEG4/ISO/AVC
Duration : 54 min 27 s
Bit rate : 3 351 kb/s
Width : 1 280 pixels
Height : 688 pixels
Display aspect ratio : 1.85:1
Frame rate mode : Constant
Frame rate : 23.976 (24000/1001) FPS
Color space : YUV
Chroma subsampling : 4:2:0
Bit depth : 8 bits
Scan type : Progressive
Bits/(Pixel*Frame) : 0.159
Stream size : 1.27 GiB (84%)
Default : Yes
Forced : No
Color range : Limited
Color primaries : BT.709
Transfer characteristics : BT.709
Matrix coefficients : BT.709

Audio
ID : 2
Format : E-AC-3
Format/Info : Enhanced Audio Coding 3
Format settings, Endianness : Big
Codec ID : A_EAC3
Duration : 54 min 27 s
Bit rate mode : Constant
Bit rate : 640 kb/s
Channel(s) : 6 channels
Channel positions : Front: L C R, Side: L R, LFE
Sampling rate : 48.0 kHz
Frame rate : 187.500 FPS (256 SPF)
Compression mode : Lossy
Stream size : 249 MiB (16%)
Language : English
Service kind : Complete Main
Default : Yes
Forced : No

Text
ID : 3
Format : UTF-8
Codec ID : S_TEXT/UTF8
Codec ID/Info : UTF-8 Plain Text
Duration : 50 min 55 s
Bit rate : 56 b/s
Count of elements : 762
Stream size : 21.2 KiB (0%)
Title : SDH
Language : English
Default : No
Forced : No





Strange Angel S01E01


Strange Angel S01E01


Strange Angel S01E01


Strange Angel S01E01


Strange Angel S01E01

All episodes