Featured TV Shows


Strange Angel S01E01

Posted By: Tavaz
1080p (FullHD) / WEB-DL IMDb
Strange Angel S01E01

Strange Angel S01E01
WEB-DL | MKV | 1920x1040 | English | H264 @ 10908 kbps | E-AC-3 @ 640 kbps | 54 min 27 s | 4.39 GiB
Subtitles: English
Genre: Drama

The story of the mysterious and brilliant Jack Parsons in 1940s Los Angeles as by day he helps birth the discipline of American rocketry and by night is a performer of sex magick rituals and a disciple to occultist Aleister Crowley.

eebcd092e69c4942b0e8803e0ea5ce34.mkv (4.4 GB)



General
Unique ID : 131686659127155765153295557383573359124 (0x6311ED91FE4675635E8DFF9F7C864A14)
Complete name : ./eebcd092e69c4942b0e8803e0ea5ce34.mkv
Format : Matroska
Format version : Version 4 / Version 2
File size : 4.39 GiB
Duration : 54 min 27 s
Overall bit rate : 11.6 Mb/s
Encoded date : UTC 2018-06-14 07:32:23
Writing application : mkvmerge v21.0.0 ('Tardigrades Will Inherit The Earth') 64-bit
Writing library : libebml v1.3.5 + libmatroska v1.4.8

Video
ID : 1
Format : AVC
Format/Info : Advanced Video Codec
Format profile : High@L4
Format settings : CABAC / 4 Ref Frames
Format settings, CABAC : Yes
Format settings, RefFrames : 4 frames
Codec ID : V_MPEG4/ISO/AVC
Duration : 54 min 27 s
Bit rate : 10.9 Mb/s
Width : 1 920 pixels
Height : 1 040 pixels
Display aspect ratio : 1.85:1
Frame rate mode : Constant
Frame rate : 23.976 (24000/1001) FPS
Color space : YUV
Chroma subsampling : 4:2:0
Bit depth : 8 bits
Scan type : Progressive
Bits/(Pixel*Frame) : 0.228
Stream size : 4.15 GiB (94%)
Default : Yes
Forced : No
Color range : Limited
Color primaries : BT.709
Transfer characteristics : BT.709
Matrix coefficients : BT.709

Audio
ID : 2
Format : E-AC-3
Format/Info : Enhanced Audio Coding 3
Format settings, Endianness : Big
Codec ID : A_EAC3
Duration : 54 min 27 s
Bit rate mode : Constant
Bit rate : 640 kb/s
Channel(s) : 6 channels
Channel positions : Front: L C R, Side: L R, LFE
Sampling rate : 48.0 kHz
Frame rate : 187.500 FPS (256 SPF)
Compression mode : Lossy
Stream size : 249 MiB (6%)
Language : English
Service kind : Complete Main
Default : Yes
Forced : No

Text
ID : 3
Format : UTF-8
Codec ID : S_TEXT/UTF8
Codec ID/Info : UTF-8 Plain Text
Duration : 50 min 55 s
Bit rate : 56 b/s
Count of elements : 762
Stream size : 21.2 KiB (0%)
Title : SDH
Language : English
Default : No
Forced : No





Strange Angel S01E01


Strange Angel S01E01


Strange Angel S01E01


Strange Angel S01E01


Strange Angel S01E01

All episodes