Featured TV Shows


Strange Angel S01E02

Posted By: Tavaz
1080p (FullHD) / WEB-DL IMDb
Strange Angel S01E02

Strange Angel S01E02
WEB-DL | MKV | 1920x1040 | English | H264 @ 12501 kbps | E-AC-3 @ 640 kbps | 49 min 29 s | 4.54 GiB
Subtitles: English
Genre: Drama

The story of the mysterious and brilliant Jack Parsons in 1940s Los Angeles as by day he helps birth the discipline of American rocketry and by night is a performer of sex magick rituals and a disciple to occultist Aleister Crowley.

2f6736a1d97849e88fff004b419f1fdd.mkv (4.5 GB)



General
Unique ID : 206087117621643611172042420223152647637 (0x9B0AEF62951706B5FD1FACDE165E6DD5)
Complete name : ./2f6736a1d97849e88fff004b419f1fdd.mkv
Format : Matroska
Format version : Version 4 / Version 2
File size : 4.54 GiB
Duration : 49 min 29 s
Overall bit rate : 13.1 Mb/s
Encoded date : UTC 2018-06-21 11:37:19
Writing application : mkvmerge v21.0.0 ('Tardigrades Will Inherit The Earth') 64-bit
Writing library : libebml v1.3.5 + libmatroska v1.4.8

Video
ID : 1
Format : AVC
Format/Info : Advanced Video Codec
Format profile : High@L4
Format settings : CABAC / 4 Ref Frames
Format settings, CABAC : Yes
Format settings, RefFrames : 4 frames
Codec ID : V_MPEG4/ISO/AVC
Duration : 49 min 29 s
Bit rate : 12.5 Mb/s
Width : 1 920 pixels
Height : 1 040 pixels
Display aspect ratio : 1.85:1
Frame rate mode : Constant
Frame rate : 24.000 FPS
Color space : YUV
Chroma subsampling : 4:2:0
Bit depth : 8 bits
Scan type : Progressive
Bits/(Pixel*Frame) : 0.261
Stream size : 4.32 GiB (95%)
Default : Yes
Forced : No
Color range : Limited
Color primaries : BT.709
Transfer characteristics : BT.709
Matrix coefficients : BT.709

Audio
ID : 2
Format : E-AC-3
Format/Info : Enhanced Audio Coding 3
Format settings, Endianness : Big
Codec ID : A_EAC3
Duration : 49 min 29 s
Bit rate mode : Constant
Bit rate : 640 kb/s
Channel(s) : 6 channels
Channel positions : Front: L C R, Side: L R, LFE
Sampling rate : 48.0 kHz
Frame rate : 187.500 FPS (256 SPF)
Compression mode : Lossy
Stream size : 227 MiB (5%)
Language : English
Service kind : Complete Main
Default : Yes
Forced : No

Text
ID : 3
Format : UTF-8
Codec ID : S_TEXT/UTF8
Codec ID/Info : UTF-8 Plain Text
Duration : 47 min 24 s
Bit rate : 69 b/s
Count of elements : 789
Stream size : 24.2 KiB (0%)
Title : SDH
Language : English
Default : No
Forced : No





Strange Angel S01E02


Strange Angel S01E02


Strange Angel S01E02


Strange Angel S01E02


Strange Angel S01E02

All episodes