Featured TV Shows


Strange Angel S01E03

Posted By: Tavaz
720p (HD) / WEB-DL IMDb
Strange Angel S01E03

Strange Angel S01E03
WEB-DL | MKV | 1280x688 | English | H264 @ 3507 kbps | E-AC-3 @ 640 kbps | 51 min 35 s | 1.50 GiB
Subtitles: English
Genre: Drama

The story of the mysterious and brilliant Jack Parsons in 1940s Los Angeles as by day he helps birth the discipline of American rocketry and by night is a performer of sex magick rituals and a disciple to occultist Aleister Crowley.

9877fbed5f23440d9b1f4b80b4934de6.mkv (1.5 GB)



General
Unique ID : 290572356347661874271117287249258879251 (0xDA9A3340F84B96AAA7EEC6322ADE1913)
Complete name : ./9877fbed5f23440d9b1f4b80b4934de6.mkv
Format : Matroska
Format version : Version 4 / Version 2
File size : 1.50 GiB
Duration : 51 min 35 s
Overall bit rate : 4 149 kb/s
Encoded date : UTC 2018-06-28 06:10:10
Writing application : mkvmerge v23.0.0 ('The Bride Said No') 64-bit
Writing library : libebml v1.3.6 + libmatroska v1.4.9

Video
ID : 1
Format : AVC
Format/Info : Advanced Video Codec
Format profile : High@L3.1
Format settings : CABAC / 5 Ref Frames
Format settings, CABAC : Yes
Format settings, RefFrames : 5 frames
Codec ID : V_MPEG4/ISO/AVC
Duration : 51 min 35 s
Bit rate : 3 507 kb/s
Width : 1 280 pixels
Height : 688 pixels
Display aspect ratio : 1.85:1
Frame rate mode : Constant
Frame rate : 24.000 FPS
Color space : YUV
Chroma subsampling : 4:2:0
Bit depth : 8 bits
Scan type : Progressive
Bits/(Pixel*Frame) : 0.166
Stream size : 1.26 GiB (85%)
Default : Yes
Forced : No
Color range : Limited
Color primaries : BT.709
Transfer characteristics : BT.709
Matrix coefficients : BT.709

Audio
ID : 2
Format : E-AC-3
Format/Info : Enhanced Audio Coding 3
Format settings, Endianness : Big
Codec ID : A_EAC3
Duration : 51 min 35 s
Bit rate mode : Constant
Bit rate : 640 kb/s
Channel(s) : 6 channels
Channel positions : Front: L C R, Side: L R, LFE
Sampling rate : 48.0 kHz
Frame rate : 187.500 FPS (256 SPF)
Compression mode : Lossy
Stream size : 236 MiB (15%)
Language : English
Service kind : Complete Main
Default : Yes
Forced : No

Text
ID : 3
Format : UTF-8
Codec ID : S_TEXT/UTF8
Codec ID/Info : UTF-8 Plain Text
Duration : 49 min 30 s
Bit rate : 55 b/s
Count of elements : 705
Stream size : 20.3 KiB (0%)
Title : SDH
Language : English
Default : No
Forced : No





Strange Angel S01E03


Strange Angel S01E03


Strange Angel S01E03


Strange Angel S01E03


Strange Angel S01E03

All episodes