Featured TV Shows


Strange Angel S01E04

Posted By: Tavaz
1080p (FullHD) / WEB-DL IMDb
Strange Angel S01E04

Strange Angel S01E04
WEB-DL | MKV | 1920x1040 | English | H264 @ 11437 kbps | E-AC-3 @ 640 kbps | 52 min 25 s | 4.42 GiB
Subtitles: English
Genre: Drama

The story of the mysterious and brilliant Jack Parsons in 1940s Los Angeles as by day he helps birth the discipline of American rocketry and by night is a performer of sex magick rituals and a disciple to occultist Aleister Crowley.

11da58354e834f27bb9cfcdbb187faf5.mkv (4.4 GB)



General
Unique ID : 143132602679290286086030409371887109805 (0x6BAE5628427478123D6A1740CD8486AD)
Complete name : ./11da58354e834f27bb9cfcdbb187faf5.mkv
Format : Matroska
Format version : Version 4 / Version 2
File size : 4.42 GiB
Duration : 52 min 25 s
Overall bit rate : 12.1 Mb/s
Encoded date : UTC 2018-07-05 20:40:38
Writing application : mkvmerge v24.0.0 ('Beyond The Pale') 64-bit
Writing library : libebml v1.3.6 + libmatroska v1.4.9

Video
ID : 1
Format : AVC
Format/Info : Advanced Video Codec
Format profile : High@L4
Format settings : CABAC / 4 Ref Frames
Format settings, CABAC : Yes
Format settings, RefFrames : 4 frames
Codec ID : V_MPEG4/ISO/AVC
Duration : 52 min 25 s
Bit rate : 11.4 Mb/s
Width : 1 920 pixels
Height : 1 040 pixels
Display aspect ratio : 1.85:1
Frame rate mode : Constant
Frame rate : 24.000 FPS
Color space : YUV
Chroma subsampling : 4:2:0
Bit depth : 8 bits
Scan type : Progressive
Bits/(Pixel*Frame) : 0.239
Stream size : 4.19 GiB (95%)
Default : Yes
Forced : No
Color range : Limited
Color primaries : BT.709
Transfer characteristics : BT.709
Matrix coefficients : BT.709

Audio
ID : 2
Format : E-AC-3
Format/Info : Enhanced Audio Coding 3
Format settings, Endianness : Big
Codec ID : A_EAC3
Duration : 52 min 25 s
Bit rate mode : Constant
Bit rate : 640 kb/s
Channel(s) : 6 channels
Channel positions : Front: L C R, Side: L R, LFE
Sampling rate : 48.0 kHz
Frame rate : 187.500 FPS (256 SPF)
Compression mode : Lossy
Stream size : 240 MiB (5%)
Language : English
Service kind : Complete Main
Default : Yes
Forced : No

Text
ID : 3
Format : UTF-8
Codec ID : S_TEXT/UTF8
Codec ID/Info : UTF-8 Plain Text
Duration : 50 min 20 s
Bit rate : 66 b/s
Count of elements : 827
Stream size : 24.6 KiB (0%)
Title : SDH
Language : English
Default : No
Forced : No





Strange Angel S01E04


Strange Angel S01E04


Strange Angel S01E04


Strange Angel S01E04


Strange Angel S01E04

All episodes