Featured TV Shows


Strange Angel S01E05

Posted By: Tavaz
1080p (FullHD) / WEB-DL IMDb
Strange Angel S01E05

Strange Angel S01E05
WEB-DL | MKV | 1920x1040 | English | H264 @ 11157 kbps | E-AC-3 @ 640 kbps | 46 min 8 s | 3.80 GiB
Subtitles: English
Genre: Drama

The story of the mysterious and brilliant Jack Parsons in 1940s Los Angeles as by day he helps birth the discipline of American rocketry and by night is a performer of sex magick rituals and a disciple to occultist Aleister Crowley.

e7bfd14cbf38459a9faf6d5cb830a7a1.mkv (3.8 GB)



General
Unique ID : 78410743490744916126960339640779391151 (0x3AFD5C216D34B50C11BD53316019C0AF)
Complete name : ./e7bfd14cbf38459a9faf6d5cb830a7a1.mkv
Format : Matroska
Format version : Version 4 / Version 2
File size : 3.80 GiB
Duration : 46 min 8 s
Overall bit rate : 11.8 Mb/s
Encoded date : UTC 2018-07-12 13:23:52
Writing application : mkvmerge v24.0.0 ('Beyond The Pale') 64-bit
Writing library : libebml v1.3.6 + libmatroska v1.4.9

Video
ID : 1
Format : AVC
Format/Info : Advanced Video Codec
Format profile : High@L4
Format settings : CABAC / 4 Ref Frames
Format settings, CABAC : Yes
Format settings, RefFrames : 4 frames
Codec ID : V_MPEG4/ISO/AVC
Duration : 46 min 8 s
Bit rate : 11.2 Mb/s
Width : 1 920 pixels
Height : 1 040 pixels
Display aspect ratio : 1.85:1
Frame rate mode : Constant
Frame rate : 24.000 FPS
Color space : YUV
Chroma subsampling : 4:2:0
Bit depth : 8 bits
Scan type : Progressive
Bits/(Pixel*Frame) : 0.233
Stream size : 3.60 GiB (95%)
Default : Yes
Forced : No
Color range : Limited
Color primaries : BT.709
Transfer characteristics : BT.709
Matrix coefficients : BT.709

Audio
ID : 2
Format : E-AC-3
Format/Info : Enhanced Audio Coding 3
Format settings, Endianness : Big
Codec ID : A_EAC3
Duration : 46 min 8 s
Bit rate mode : Constant
Bit rate : 640 kb/s
Channel(s) : 6 channels
Channel positions : Front: L C R, Side: L R, LFE
Sampling rate : 48.0 kHz
Frame rate : 187.500 FPS (256 SPF)
Compression mode : Lossy
Stream size : 211 MiB (5%)
Language : English
Service kind : Complete Main
Default : Yes
Forced : No

Text
ID : 3
Format : UTF-8
Codec ID : S_TEXT/UTF8
Codec ID/Info : UTF-8 Plain Text
Duration : 44 min 11 s
Bit rate : 49 b/s
Count of elements : 609
Stream size : 16.1 KiB (0%)
Title : SDH
Language : English
Default : No
Forced : No





Strange Angel S01E05


Strange Angel S01E05


Strange Angel S01E05


Strange Angel S01E05


Strange Angel S01E05

All episodes