Featured TV Shows


Strange Angel S01E05

Posted By: Tavaz
720p (HD) / WEB-DL IMDb
Strange Angel S01E05

Strange Angel S01E05
WEB-DL | MKV | 1280x688 | English | H264 @ 3478 kbps | E-AC-3 @ 640 kbps | 46 min 8 s | 1.33 GiB
Subtitles: English
Genre: Drama

The story of the mysterious and brilliant Jack Parsons in 1940s Los Angeles as by day he helps birth the discipline of American rocketry and by night is a performer of sex magick rituals and a disciple to occultist Aleister Crowley.

c509f98c5893474d905d5265a1c667cc.mkv (1.3 GB)



General
Unique ID : 77327441676849167147827561409544874331 (0x3A2CB93A3BE69D9721A596FACF8A695B)
Complete name : ./c509f98c5893474d905d5265a1c667cc.mkv
Format : Matroska
Format version : Version 4 / Version 2
File size : 1.33 GiB
Duration : 46 min 8 s
Overall bit rate : 4 120 kb/s
Encoded date : UTC 2018-07-12 13:21:22
Writing application : mkvmerge v24.0.0 ('Beyond The Pale') 64-bit
Writing library : libebml v1.3.6 + libmatroska v1.4.9

Video
ID : 1
Format : AVC
Format/Info : Advanced Video Codec
Format profile : High@L3.1
Format settings : CABAC / 5 Ref Frames
Format settings, CABAC : Yes
Format settings, RefFrames : 5 frames
Codec ID : V_MPEG4/ISO/AVC
Duration : 46 min 8 s
Bit rate : 3 479 kb/s
Width : 1 280 pixels
Height : 688 pixels
Display aspect ratio : 1.85:1
Frame rate mode : Constant
Frame rate : 24.000 FPS
Color space : YUV
Chroma subsampling : 4:2:0
Bit depth : 8 bits
Scan type : Progressive
Bits/(Pixel*Frame) : 0.165
Stream size : 1.12 GiB (84%)
Default : Yes
Forced : No
Color range : Limited
Color primaries : BT.709
Transfer characteristics : BT.709
Matrix coefficients : BT.709

Audio
ID : 2
Format : E-AC-3
Format/Info : Enhanced Audio Coding 3
Format settings, Endianness : Big
Codec ID : A_EAC3
Duration : 46 min 8 s
Bit rate mode : Constant
Bit rate : 640 kb/s
Channel(s) : 6 channels
Channel positions : Front: L C R, Side: L R, LFE
Sampling rate : 48.0 kHz
Frame rate : 187.500 FPS (256 SPF)
Compression mode : Lossy
Stream size : 211 MiB (16%)
Language : English
Service kind : Complete Main
Default : Yes
Forced : No

Text
ID : 3
Format : UTF-8
Codec ID : S_TEXT/UTF8
Codec ID/Info : UTF-8 Plain Text
Duration : 44 min 11 s
Bit rate : 49 b/s
Count of elements : 609
Stream size : 16.1 KiB (0%)
Title : SDH
Language : English
Default : No
Forced : No





Strange Angel S01E05


Strange Angel S01E05


Strange Angel S01E05


Strange Angel S01E05


Strange Angel S01E05

All episodes