Featured TV Shows


Strange Angel S01E06

Posted By: Tavaz
720p (HD) / WEB-DL IMDb
Strange Angel S01E06

Strange Angel S01E06
WEB-DL | MKV | 1280x688 | English | H264 @ 3783 kbps | E-AC-3 @ 640 kbps | 53 min 21 s | 1.65 GiB
Subtitles: English
Genre: Drama

The story of the mysterious and brilliant Jack Parsons in 1940s Los Angeles as by day he helps birth the discipline of American rocketry and by night is a performer of sex magick rituals and a disciple to occultist Aleister Crowley.

9ea1f2cf2265471b90466c225dd6b657.mkv (1.6 GB)



General
Unique ID : 245941709669027062920914897792604873731 (0xB906A67B89ACB1F8DDBB8E4EEB20A403)
Complete name : ./9ea1f2cf2265471b90466c225dd6b657.mkv
Format : Matroska
Format version : Version 4 / Version 2
File size : 1.65 GiB
Duration : 53 min 21 s
Overall bit rate : 4 425 kb/s
Encoded date : UTC 2018-07-19 06:09:07
Writing application : mkvmerge v24.0.0 ('Beyond The Pale') 64-bit
Writing library : libebml v1.3.6 + libmatroska v1.4.9

Video
ID : 1
Format : AVC
Format/Info : Advanced Video Codec
Format profile : High@L3.1
Format settings : CABAC / 5 Ref Frames
Format settings, CABAC : Yes
Format settings, RefFrames : 5 frames
Codec ID : V_MPEG4/ISO/AVC
Duration : 53 min 21 s
Bit rate : 3 783 kb/s
Width : 1 280 pixels
Height : 688 pixels
Display aspect ratio : 1.85:1
Frame rate mode : Constant
Frame rate : 24.000 FPS
Color space : YUV
Chroma subsampling : 4:2:0
Bit depth : 8 bits
Scan type : Progressive
Bits/(Pixel*Frame) : 0.179
Stream size : 1.41 GiB (85%)
Default : Yes
Forced : No
Color range : Limited
Color primaries : BT.709
Transfer characteristics : BT.709
Matrix coefficients : BT.709

Audio
ID : 2
Format : E-AC-3
Format/Info : Enhanced Audio Coding 3
Format settings, Endianness : Big
Codec ID : A_EAC3
Duration : 53 min 21 s
Bit rate mode : Constant
Bit rate : 640 kb/s
Channel(s) : 6 channels
Channel positions : Front: L C R, Side: L R, LFE
Sampling rate : 48.0 kHz
Frame rate : 187.500 FPS (256 SPF)
Compression mode : Lossy
Stream size : 244 MiB (14%)
Language : English
Service kind : Complete Main
Default : Yes
Forced : No

Text
ID : 3
Format : UTF-8
Codec ID : S_TEXT/UTF8
Codec ID/Info : UTF-8 Plain Text
Duration : 51 min 5 s
Bit rate : 65 b/s
Count of elements : 836
Stream size : 24.4 KiB (0%)
Title : SDH
Language : English
Default : No
Forced : No





Strange Angel S01E06


Strange Angel S01E06


Strange Angel S01E06


Strange Angel S01E06


Strange Angel S01E06

All episodes