Featured TV Shows


Strange Angel S01E09

Posted By: Tavaz
SD / WEBRip IMDb
Strange Angel S01E09

Strange Angel S01E09
WEBRip | MKV | 720x380 | English | H264 @ 637 kbps | AAC @ 125 kbps | 50 min 53 s | 279 MiB
Subtitles: English
Genre: Drama

The story of the mysterious and brilliant Jack Parsons in 1940s Los Angeles as by day he helps birth the discipline of American rocketry and by night is a performer of sex magick rituals and a disciple to occultist Aleister Crowley.

148ff8b5b8804a9cab2b2009aa39f1d2.mkv (278.5 MB)



General
Unique ID : 71423783136362532620743228876936845490 (0x35BBB8638216F7C8A7F437D6815218B2)
Complete name : ./148ff8b5b8804a9cab2b2009aa39f1d2.mkv
Format : Matroska
Format version : Version 4 / Version 2
File size : 279 MiB
Duration : 50 min 53 s
Overall bit rate : 765 kb/s
Encoded date : UTC 2018-08-09 10:07:25
Writing application : mkvmerge v21.0.0 ('Tardigrades Will Inherit The Earth') 64-bit
Writing library : libebml v1.3.5 + libmatroska v1.4.8

Video
ID : 1
Format : AVC
Format/Info : Advanced Video Codec
Format profile : High@L3.1
Format settings : CABAC / 5 Ref Frames
Format settings, CABAC : Yes
Format settings, RefFrames : 5 frames
Codec ID : V_MPEG4/ISO/AVC
Duration : 50 min 53 s
Bit rate : 637 kb/s
Width : 720 pixels
Height : 380 pixels
Display aspect ratio : 1.895
Original display aspect ratio : 1.897
Frame rate mode : Constant
Frame rate : 23.976 (24000/1001) FPS
Color space : YUV
Chroma subsampling : 4:2:0
Bit depth : 8 bits
Scan type : Progressive
Bits/(Pixel*Frame) : 0.097
Stream size : 232 MiB (83%)
Writing library : x264 core 155 r2901 7d0ff22
Encoding settings : cabac=1 / ref=5 / deblock=1:-3:-3 / analyse=0x3:0x113 / me=hex / subme=8 / psy=1 / psy_rd=1.00:0.15 / mixed_ref=1 / me_range=16 / chroma_me=1 / trellis=2 / 8x8dct=1 / cqm=0 / deadzone=21,11 / fast_pskip=1 / chroma_qp_offset=-3 / threads=12 / lookahead_threads=2 / sliced_threads=0 / nr=0 / decimate=1 / interlaced=0 / bluray_compat=0 / constrained_intra=0 / bframes=3 / b_pyramid=2 / b_adapt=2 / b_bias=0 / direct=3 / weightb=1 / open_gop=0 / weightp=2 / keyint=250 / keyint_min=23 / scenecut=40 / intra_refresh=0 / rc_lookahead=50 / rc=crf / mbtree=1 / crf=19.0 / qcomp=0.60 / qpmin=0 / qpmax=69 / qpstep=4 / ip_ratio=1.40 / aq=1:1.00
Language : English
Default : Yes
Forced : No
Color range : Limited
Matrix coefficients : BT.709

Audio
ID : 2
Format : AAC
Format/Info : Advanced Audio Codec
Format profile : LC
Codec ID : A_AAC-2
Duration : 50 min 53 s
Bit rate : 125 kb/s
Channel(s) : 2 channels
Channel positions : Front: L R
Sampling rate : 48.0 kHz
Frame rate : 46.875 FPS (1024 SPF)
Compression mode : Lossy
Stream size : 45.6 MiB (16%)
Language : English
Default : Yes
Forced : No

Text
ID : 3
Format : UTF-8
Codec ID : S_TEXT/UTF8
Codec ID/Info : UTF-8 Plain Text
Duration : 48 min 57 s
Bit rate : 198 b/s
Count of elements : 756
Stream size : 71.2 KiB (0%)
Language : English
Default : No
Forced : No





Strange Angel S01E09


Strange Angel S01E09


Strange Angel S01E09


Strange Angel S01E09


Strange Angel S01E09

All episodes