Featured TV Shows


Strange Angel S02E01

Posted By: Tavaz
720p (HD) / WEBRip IMDb
Strange Angel S02E01

Strange Angel S02E01
WEBRip | MKV | 1280x720 | English | H264 @ 2392 kbps | E-AC-3 @ 640 kbps | 49 min 20 s | 1.05 GiB
Subtitles: English
Genre: Drama


The story of the mysterious and brilliant Jack Parsons in 1940s Los Angeles as by day he helps birth the discipline of American rocketry and by night is a performer of sex magick rituals and a disciple to occultist Aleister Crowley.

Strange.Angel.S02E01.The.Fool.720p.AMZN.WEB-DL.DDP5.1.H.264-TVSmash.mkv (1.0 GB)



General
Unique ID : 235766084389527685132206901828162815945 (0xB15EE56C07EE5391B5457568CBB607C9)
Complete name : ./Strange.Angel.S02E01.The.Fool.720p.AMZN.WEB-DL.DDP5.1.H.264-TVSmash.mkv
Format : Matroska
Format version : Version 4 / Version 2
File size : 1.05 GiB
Duration : 49 min 20 s
Overall bit rate : 3 034 kb/s
Encoded date : UTC 2019-06-14 03:47:19
Writing application : mkvmerge v23.0.0 ('The Bride Said No') 64-bit
Writing library : libebml v1.3.6 + libmatroska v1.4.9

Video
ID : 1
Format : AVC
Format/Info : Advanced Video Codec
Format profile : High@L3.1
Format settings : CABAC / 4 Ref Frames
Format settings, CABAC : Yes
Format settings, RefFrames : 4 frames
Codec ID : V_MPEG4/ISO/AVC
Duration : 49 min 20 s
Bit rate mode : Constant
Bit rate : 2 392 kb/s
Nominal bit rate : 6 000 kb/s
Width : 1 280 pixels
Height : 720 pixels
Display aspect ratio : 16:9
Frame rate mode : Constant
Frame rate : 24.000 FPS
Color space : YUV
Chroma subsampling : 4:2:0
Bit depth : 8 bits
Scan type : Progressive
Bits/(Pixel*Frame) : 0.108
Stream size : 844 MiB (79%)
Default : Yes
Forced : No
Color range : Limited
Color primaries : BT.709
Transfer characteristics : BT.709
Matrix coefficients : BT.709

Audio
ID : 2
Format : E-AC-3
Format/Info : Enhanced Audio Coding 3
Format settings, Endianness : Big
Codec ID : A_EAC3
Duration : 49 min 20 s
Bit rate mode : Constant
Bit rate : 640 kb/s
Channel(s) : 6 channels
Channel positions : Front: L C R, Side: L R, LFE
Sampling rate : 48.0 kHz
Frame rate : 187.500 FPS (256 SPF)
Compression mode : Lossy
Stream size : 226 MiB (21%)
Language : English
Service kind : Complete Main
Default : Yes
Forced : No

Text
ID : 3
Format : UTF-8
Codec ID : S_TEXT/UTF8
Codec ID/Info : UTF-8 Plain Text
Duration : 47 min 16 s
Bit rate : 79 b/s
Count of elements : 894
Stream size : 27.4 KiB (0%)
Title : SDH
Language : English
Default : No
Forced : No





Strange Angel S02E01


Strange Angel S02E01


Strange Angel S02E01


Strange Angel S02E01


Strange Angel S02E01

All episodes