Featured TV Shows


Strange Angel S02E05

Posted By: Tavaz
1080p (FullHD) / WEBRip IMDb
Strange Angel S02E05

Strange Angel S02E05
WEBRip | MKV | 1920x1080 | English | H264 @ 5614 kbps | E-AC-3 @ 640 kbps | 46 min 37 s | 2.04 GiB
Subtitles: English
Genre: Drama


The story of the mysterious and brilliant Jack Parsons in 1940s Los Angeles as by day he helps birth the discipline of American rocketry and by night is a performer of sex magick rituals and a disciple to occultist Aleister Crowley.

aa658b11a37c481ca3a1d04ecbd79747.mkv (2.0 GB)



General
Unique ID : 127926365685147100563366881608460656050 (0x603DB8CA2D229938D85A58CA9D57DDB2)
Complete name : ./aa658b11a37c481ca3a1d04ecbd79747.mkv
Format : Matroska
Format version : Version 4 / Version 2
File size : 2.04 GiB
Duration : 46 min 37 s
Overall bit rate : 6 257 kb/s
Encoded date : UTC 2019-07-11 07:13:12
Writing application : mkvmerge v33.1.0 ('Primrose') 64-bit
Writing library : libebml v1.3.7 + libmatroska v1.5.0

Video
ID : 1
Format : AVC
Format/Info : Advanced Video Codec
Format profile : High@L4
Format settings : CABAC / 4 Ref Frames
Format settings, CABAC : Yes
Format settings, RefFrames : 4 frames
Codec ID : V_MPEG4/ISO/AVC
Duration : 46 min 37 s
Bit rate mode : Constant
Bit rate : 5 615 kb/s
Nominal bit rate : 10 000 kb/s
Width : 1 920 pixels
Height : 1 080 pixels
Display aspect ratio : 16:9
Frame rate mode : Constant
Frame rate : 24.000 FPS
Color space : YUV
Chroma subsampling : 4:2:0
Bit depth : 8 bits
Scan type : Progressive
Bits/(Pixel*Frame) : 0.113
Stream size : 1.83 GiB (90%)
Language : English
Default : Yes
Forced : No
Color range : Limited
Color primaries : BT.709
Transfer characteristics : BT.709
Matrix coefficients : BT.709

Audio
ID : 2
Format : E-AC-3
Format/Info : Enhanced Audio Coding 3
Format settings, Endianness : Big
Codec ID : A_EAC3
Duration : 46 min 37 s
Bit rate mode : Constant
Bit rate : 640 kb/s
Channel(s) : 6 channels
Channel positions : Front: L C R, Side: L R, LFE
Sampling rate : 48.0 kHz
Frame rate : 187.500 FPS (256 SPF)
Compression mode : Lossy
Stream size : 213 MiB (10%)
Language : English
Service kind : Complete Main
Default : Yes
Forced : No

Text
ID : 3
Format : UTF-8
Codec ID : S_TEXT/UTF8
Codec ID/Info : UTF-8 Plain Text
Duration : 44 min 51 s
Bit rate : 70 b/s
Count of elements : 777
Stream size : 23.1 KiB (0%)
Title : English
Language : English
Default : No
Forced : No





Strange Angel S02E05


Strange Angel S02E05


Strange Angel S02E05


Strange Angel S02E05


Strange Angel S02E05

All episodes