Featured TV Shows


Strange Angel S02E05

Posted By: Tavaz
720p (HD) / WEBRip IMDb
Strange Angel S02E05

Strange Angel S02E05
WEBRip | MKV | 1280x720 | English | H264 @ 2315 kbps | E-AC-3 @ 640 kbps | 46 min 37 s | 986 MiB
Subtitles: English
Genre: Drama


The story of the mysterious and brilliant Jack Parsons in 1940s Los Angeles as by day he helps birth the discipline of American rocketry and by night is a performer of sex magick rituals and a disciple to occultist Aleister Crowley.

Strange.Angel.S02E05.iNTERNAL.720p.WEB.H264-AMRAP.mkv (986.4 MB)



General
Unique ID : 263859623249365801050835900967375184328 (0xC68183D3F6DD81803F38E9D07CF5A1C8)
Complete name : ./Strange.Angel.S02E05.iNTERNAL.720p.WEB.H264-AMRAP.mkv
Format : Matroska
Format version : Version 4 / Version 2
File size : 986 MiB
Duration : 46 min 37 s
Overall bit rate : 2 957 kb/s
Encoded date : UTC 2019-07-11 07:12:25
Writing application : mkvmerge v33.1.0 ('Primrose') 64-bit
Writing library : libebml v1.3.7 + libmatroska v1.5.0

Video
ID : 1
Format : AVC
Format/Info : Advanced Video Codec
Format profile : High@L3.1
Format settings : CABAC / 4 Ref Frames
Format settings, CABAC : Yes
Format settings, RefFrames : 4 frames
Codec ID : V_MPEG4/ISO/AVC
Duration : 46 min 37 s
Bit rate mode : Constant
Bit rate : 2 315 kb/s
Nominal bit rate : 6 000 kb/s
Width : 1 280 pixels
Height : 720 pixels
Display aspect ratio : 16:9
Frame rate mode : Constant
Frame rate : 24.000 FPS
Color space : YUV
Chroma subsampling : 4:2:0
Bit depth : 8 bits
Scan type : Progressive
Bits/(Pixel*Frame) : 0.105
Stream size : 772 MiB (78%)
Language : English
Default : Yes
Forced : No
Color range : Limited
Color primaries : BT.709
Transfer characteristics : BT.709
Matrix coefficients : BT.709

Audio
ID : 2
Format : E-AC-3
Format/Info : Enhanced Audio Coding 3
Format settings, Endianness : Big
Codec ID : A_EAC3
Duration : 46 min 37 s
Bit rate mode : Constant
Bit rate : 640 kb/s
Channel(s) : 6 channels
Channel positions : Front: L C R, Side: L R, LFE
Sampling rate : 48.0 kHz
Frame rate : 187.500 FPS (256 SPF)
Compression mode : Lossy
Stream size : 213 MiB (22%)
Language : English
Service kind : Complete Main
Default : Yes
Forced : No

Text
ID : 3
Format : UTF-8
Codec ID : S_TEXT/UTF8
Codec ID/Info : UTF-8 Plain Text
Duration : 44 min 51 s
Bit rate : 70 b/s
Count of elements : 777
Stream size : 23.1 KiB (0%)
Title : English
Language : English
Default : No
Forced : No





Strange Angel S02E05


Strange Angel S02E05


Strange Angel S02E05


Strange Angel S02E05


Strange Angel S02E05

All episodes