Index
# A B C D E F G H I J K L M N O P Q R S T U V W Y Z
Tags
Language
Tags

Featured TV Shows


Strike Back S07E03

Posted By: Tavaz
1080p (FullHD) / WEB-DL IMDb
Strike Back S07E03

Strike Back S07E03
WEB-DL | MKV | 1920x1080 | English | H264 @ 8990 kbps | E-AC-3 @ 640 kbps | 49 min 53 s | 3.36 GiB
Subtitles: English
Genre: Drama


The series follows John Porter, a former British Special Forces soldier, who is drafted back into service by Section 20, a fictional branch of the Secret Intelligence Service.

3e5d1b773f9946a1b753c995e6dc984c.mkv (3.4 GB)



General
Unique ID : 143475713048272123809249221061639442833 (0x6BF06ACDF5B82930EAFB73DAF3749191)
Complete name : ./3e5d1b773f9946a1b753c995e6dc984c.mkv
Format : Matroska
Format version : Version 4 / Version 2
File size : 3.36 GiB
Duration : 49 min 53 s
Overall bit rate : 9 632 kb/s
Encoded date : UTC 2019-02-09 14:47:15
Writing application : mkvmerge v19.0.0 ('Brave Captain') 64-bit
Writing library : libebml v1.3.5 + libmatroska v1.4.8

Video
ID : 1
Format : AVC
Format/Info : Advanced Video Codec
Format profile : High@L4
Format settings : CABAC / 4 Ref Frames
Format settings, CABAC : Yes
Format settings, RefFrames : 4 frames
Codec ID : V_MPEG4/ISO/AVC
Duration : 49 min 52 s
Bit rate mode : Constant
Bit rate : 8 991 kb/s
Nominal bit rate : 10 000 kb/s
Width : 1 920 pixels
Height : 1 080 pixels
Display aspect ratio : 16:9
Frame rate mode : Constant
Frame rate : 23.976 (24000/1001) FPS
Color space : YUV
Chroma subsampling : 4:2:0
Bit depth : 8 bits
Scan type : Progressive
Bits/(Pixel*Frame) : 0.181
Stream size : 3.13 GiB (93%)
Default : Yes
Forced : No
Color range : Limited
Color primaries : BT.709
Transfer characteristics : BT.709
Matrix coefficients : BT.709

Audio
ID : 2
Format : E-AC-3
Format/Info : Enhanced Audio Coding 3
Format settings, Endianness : Big
Codec ID : A_EAC3
Duration : 49 min 52 s
Bit rate mode : Constant
Bit rate : 640 kb/s
Channel(s) : 6 channels
Channel positions : Front: L C R, Side: L R, LFE
Sampling rate : 48.0 kHz
Frame rate : 187.500 FPS (256 SPF)
Compression mode : Lossy
Delay relative to video : 24 ms
Stream size : 228 MiB (7%)
Language : English
Service kind : Complete Main
Default : Yes
Forced : No

Text
ID : 3
Format : UTF-8
Codec ID : S_TEXT/UTF8
Codec ID/Info : UTF-8 Plain Text
Duration : 49 min 46 s
Bit rate : 73 b/s
Count of elements : 1053
Stream size : 26.6 KiB (0%)
Title : SDH
Language : English
Default : No
Forced : No





Strike Back S07E03


Strike Back S07E03


Strike Back S07E03


Strike Back S07E03


Strike Back S07E03

All episodes