Strike Back S07E08

Posted By: Tavaz
720p (HD) / WEBRip IMDb
Strike Back S07E08

Strike Back S07E08
WEBRip | MKV | 1280x720 | English | H264 @ 3681 kbps | E-AC-3 @ 640 kbps | 49 min 41 s | 1.53 GiB
Subtitles: English
Genre: Action, Adventure, Drama

The series follows John Porter, a former British Special Forces soldier, who is drafted back into service by Section 20, a fictional branch of the Secret Intelligence Service.

Strike.Back.S07E08.720p.WEB.H264-METCON.mkv (1.5 GB)



General
Unique ID : 266079736379518351667159924880409442956 (0xC82D17DB38961CC228C4566374793A8C)
Complete name : ./Strike.Back.S07E08.720p.WEB.H264-METCON.mkv
Format : Matroska
Format version : Version 4 / Version 2
File size : 1.53 GiB
Duration : 49 min 41 s
Overall bit rate : 4 409 kb/s
Writing application : mkvmerge v30.1.0 ('Forever And More') 64-bit
Writing library : libebml v1.3.6 + libmatroska v1.4.9

Video
ID : 1
Format : AVC
Format/Info : Advanced Video Codec
Format profile : High@L3.1
Format settings : CABAC / 4 Ref Frames
Format settings, CABAC : Yes
Format settings, RefFrames : 4 frames
Codec ID : V_MPEG4/ISO/AVC
Duration : 49 min 41 s
Bit rate mode : Constant
Bit rate : 3 681 kb/s
Nominal bit rate : 6 000 kb/s
Width : 1 280 pixels
Height : 720 pixels
Display aspect ratio : 16:9
Frame rate mode : Constant
Frame rate : 23.976 (24000/1001) FPS
Color space : YUV
Chroma subsampling : 4:2:0
Bit depth : 8 bits
Scan type : Progressive
Bits/(Pixel*Frame) : 0.167
Stream size : 1.28 GiB (83%)
Default : Yes
Forced : No
Color range : Limited
Color primaries : BT.709
Transfer characteristics : BT.709
Matrix coefficients : BT.709

Audio
ID : 2
Format : E-AC-3
Format/Info : Enhanced Audio Coding 3
Format settings, Endianness : Big
Codec ID : A_EAC3
Duration : 49 min 41 s
Bit rate mode : Constant
Bit rate : 640 kb/s
Channel(s) : 6 channels
Channel positions : Front: L C R, Side: L R, LFE
Sampling rate : 48.0 kHz
Frame rate : 187.500 FPS (256 SPF)
Compression mode : Lossy
Delay relative to video : -106 ms
Stream size : 227 MiB (15%)
Language : English
Service kind : Complete Main
Default : Yes
Forced : No

Text
ID : 3
Format : UTF-8
Codec ID : S_TEXT/UTF8
Codec ID/Info : UTF-8 Plain Text
Title : English
Language : English
Default : No
Forced : No





Strike Back S07E08


Strike Back S07E08


Strike Back S07E08


Strike Back S07E08


Strike Back S07E08

All episodes