Strike Back S07E08

Posted By: Tavaz
Strike Back S07E08

Strike Back S07E08

The series follows John Porter, a former British Special Forces soldier, who is drafted back into service by Section 20, a fictional branch of the Secret Intelligence Service.

c809b6c1f66e498d9388efcd0cc1c738.avi (491.4 MB)



General
Complete name : ./c809b6c1f66e498d9388efcd0cc1c738.avi
Format : AVI
Format/Info : Audio Video Interleave
File size : 491 MiB
Duration : 49 min 41 s
Overall bit rate : 1 383 kb/s
Writing application : Lavf57.81.100

Video
ID : 0
Format : xvid
Codec ID : xvid
Duration : 49 min 41 s
Bit rate : 1 242 kb/s
Width : 640 pixels
Height : 360 pixels
Display aspect ratio : 16:9
Frame rate : 23.976 (24000/1001) FPS
Scan type : Progressive
Bits/(Pixel*Frame) : 0.225
Stream size : 441 MiB (90%)

Audio
ID : 1
Format : MPEG Audio
Format version : Version 1
Format profile : Layer 3
Format settings : Joint stereo / MS Stereo
Mode : Joint stereo
Mode extension : MS Stereo
Codec ID : 55
Codec ID/Hint : MP3
Duration : 49 min 41 s
Bit rate mode : Constant
Bit rate : 128 kb/s
Channel(s) : 2 channels
Sampling rate : 48.0 kHz
Compression mode : Lossy
Stream size : 45.5 MiB (9%)
Alignment : Aligned on interleaves
Interleave, duration : 24 ms (0.58 video frame)
Interleave, preload duration : 168 ms





Strike Back S07E08


Strike Back S07E08


Strike Back S07E08


Strike Back S07E08


Strike Back S07E08

All episodes