Featured TV Shows


Stumptown S01E18

Posted By: Tavaz
1080p (FullHD) / WEBRip IMDb
Stumptown S01E18

Stumptown S01E18
WEBRip | MKV | 1920x1080 | English | H264 @ 10000 kbps | E-AC-3 @ 640 kbps | 43 min 2 s | 3.07 GiB
Subtitles: English
Genre: Drama


Dex Parios is a strong, assertive, and unapologetically sharp-witted Army veteran working as a P.I. in Portland, Oregon. With a complicated personal history and only herself to rely on, she solves other people’s messes with a blind eye toward her own.

2a015631e27b43bf91247a0de805e762.mkv (3.1 GB)



General
Unique ID : 210186660812641352000172202753655270671 (0x9E207A783984219677D29A1115F76D0F)
Complete name : ./2a015631e27b43bf91247a0de805e762.mkv
Format : Matroska
Format version : Version 4 / Version 2
File size : 3.07 GiB
Duration : 43 min 2 s
Overall bit rate : 10.2 Mb/s
Encoded date : UTC 2020-03-26 07:02:58
Writing application : mkvmerge v43.0.0 ('The Quartermaster') 64-bit
Writing library : libebml v1.3.10 + libmatroska v1.5.2

Video
ID : 1
Format : AVC
Format/Info : Advanced Video Codec
Format profile : High@L4
Format settings : CABAC / 4 Ref Frames
Format settings, CABAC : Yes
Format settings, RefFrames : 4 frames
Codec ID : V_MPEG4/ISO/AVC
Duration : 43 min 2 s
Bit rate mode : Constant
Bit rate : 10 000 kb/s
Width : 1 920 pixels
Height : 1 080 pixels
Display aspect ratio : 16:9
Frame rate mode : Constant
Frame rate : 23.976 (24000/1001) FPS
Color space : YUV
Chroma subsampling : 4:2:0
Bit depth : 8 bits
Scan type : Progressive
Bits/(Pixel*Frame) : 0.201
Stream size : 2.87 GiB (94%)
Language : English
Default : Yes
Forced : No
Color range : Limited
Color primaries : BT.709
Transfer characteristics : BT.709
Matrix coefficients : BT.709

Audio
ID : 2
Format : E-AC-3
Format/Info : Enhanced Audio Coding 3
Format settings, Endianness : Big
Codec ID : A_EAC3
Duration : 43 min 2 s
Bit rate mode : Constant
Bit rate : 640 kb/s
Channel(s) : 6 channels
Channel positions : Front: L C R, Side: L R, LFE
Sampling rate : 48.0 kHz
Frame rate : 187.500 FPS (256 SPF)
Compression mode : Lossy
Stream size : 197 MiB (6%)
Language : English
Service kind : Complete Main
Default : Yes
Forced : No

Text
ID : 3
Format : UTF-8
Codec ID : S_TEXT/UTF8
Codec ID/Info : UTF-8 Plain Text
Duration : 42 min 50 s
Bit rate : 91 b/s
Count of elements : 1038
Stream size : 28.6 KiB (0%)
Language : English
Default : No
Forced : No





Stumptown S01E18


Stumptown S01E18


Stumptown S01E18


Stumptown S01E18


Stumptown S01E18

All episodes