Index
# A B C D E F G H I J K L M N O P Q R S T U V W Y Z
Tags
Language
Tags

Featured TV Shows


Succession S01E05

Posted By: Tavaz
Succession S01E05

Succession S01E05
MPEG | 720x480 | MPV @ 3602 kbps | AC-3 @ 448 kbps | 34 min 38 s | 1 024 MiB
Genre: Drama

The lives of the Roy family as they contemplate their future once their aging father begins to step back from the media and entertainment conglomerate they control.

VTS_01_0.VOB (56.0 KB)
VTS_01_3.VOB (750.1 MB)
VIDEO_TS.VOB (56.0 KB)
VTS_01_0.IFO (68.0 KB)
VTS_01_0.BUP (68.0 KB)
VTS_01_1.VOB (1024.0 MB)
VTS_01_2.VOB (1024.0 MB)
VIDEO_TS.BUP (12.0 KB)
VIDEO_TS.IFO (12.0 KB)



General
Complete name : ./VIDEO_TS/VTS_01_1.VOB
Format : MPEG-PS
File size : 1 024 MiB
Duration : 34 min 38 s
Overall bit rate mode : Variable
Overall bit rate : 4 133 kb/s

Video
ID : 224 (0xE0)
Format : MPEG Video
Format version : Version 2
Format profile : Main@Main
Format settings : BVOP
Format settings, BVOP : Yes
Format settings, Matrix : Default
Format settings, GOP : M=3, N=12
Duration : 34 min 38 s
Bit rate mode : Variable
Bit rate : 3 603 kb/s
Maximum bit rate : 9 200 kb/s
Width : 720 pixels
Height : 480 pixels
Display aspect ratio : 16:9
Frame rate : 29.970 (30000/1001) FPS
Standard : Component
Color space : YUV
Chroma subsampling : 4:2:0
Bit depth : 8 bits
Scan type : Progressive
Compression mode : Lossy
Bits/(Pixel*Frame) : 0.348
Time code of first frame : 00:00:00:00
Time code source : Group of pictures header
GOP, Open/Closed : Closed
Stream size : 893 MiB (87%)
Color primaries : BT.601 NTSC
Transfer characteristics : BT.601
Matrix coefficients : BT.601

Audio
ID : 189 (0xBD)-128 (0x80)
Format : AC-3
Format/Info : Audio Coding 3
Format settings, Endianness : Big
Muxing mode : DVD-Video
Duration : 34 min 38 s
Bit rate mode : Constant
Bit rate : 448 kb/s
Channel(s) : 6 channels
Channel positions : Front: L C R, Side: L R, LFE
Sampling rate : 48.0 kHz
Frame rate : 31.250 FPS (1536 SPF)
Bit depth : 16 bits
Compression mode : Lossy
Delay relative to video : -34 ms
Stream size : 111 MiB (11%)
Service kind : Complete Main

Text
ID : 189 (0xBD)-32 (0x20)
Format : RLE
Format/Info : Run-length encoding
Muxing mode : DVD-Video

Menu





Succession S01E05


Succession S01E05


Succession S01E05


Succession S01E05


Succession S01E05

All episodes