Index
# A B C D E F G H I J K L M N O P Q R S T U V W Y Z
Tags
Language
Tags

Featured TV Shows


The Loch S02E51

Posted By:
720p (HD) / WEB-DL IMDb
The Loch S02E51

The Loch S02E51
WEB-DL | MKV | 1280x720 | English | H264 @ 1913 kbps | E-AC-3 @ 128 kbps | 12 min 22 s | 176 MiB
Subtitles: Indonesian, English
Genre: Crime, Drama

The search for a serial killer becomes a matter of life and death for detective Annie Redford, who is trying to cope with her first murder case.

53c2c33360324243966ca8647c04266a.mkv (175.9 MB)



General
Unique ID : 293507107484134473779728364578199572474 (0xDCCF69A7FAD1B0016A57358FE77C0FFA)
Complete name : ./53c2c33360324243966ca8647c04266a.mkv
Format : Matroska
Format version : Version 4 / Version 2
File size : 176 MiB
Duration : 12 min 22 s
Overall bit rate mode : Variable
Overall bit rate : 1 988 kb/s
Encoded date : UTC 2019-03-16 05:33:07
Writing application : mkvmerge v25.0.0 ('Prog Noir') 32-bit
Writing library : libebml v1.3.6 + libmatroska v1.4.9

Video
ID : 1
Format : AVC
Format/Info : Advanced Video Codec
Format profile : High@L3.1
Format settings : CABAC / 4 Ref Frames
Format settings, CABAC : Yes
Format settings, RefFrames : 4 frames
Codec ID : V_MPEG4/ISO/AVC
Duration : 12 min 0 s
Bit rate mode : Variable
Bit rate : 1 913 kb/s
Maximum bit rate : 14.0 Mb/s
Width : 1 280 pixels
Height : 720 pixels
Display aspect ratio : 16:9
Frame rate mode : Constant
Frame rate : 25.000 FPS
Color space : YUV
Chroma subsampling : 4:2:0
Bit depth : 8 bits
Scan type : Progressive
Bits/(Pixel*Frame) : 0.083
Stream size : 164 MiB (93%)
Writing library : x264 core 148 r2714 2daf636
Encoding settings : cabac=1 / ref=4 / deblock=1:0:0 / analyse=0x3:0x111 / me=umh / subme=10 / psy=1 / psy_rd=1.00:0.00 / mixed_ref=1 / me_range=120 / chroma_me=1 / trellis=2 / 8x8dct=1 / cqm=0 / deadzone=21,11 / fast_pskip=1 / chroma_qp_offset=-2 / threads=8 / lookahead_threads=2 / sliced_threads=0 / nr=0 / decimate=1 / interlaced=0 / bluray_compat=0 / stitchable=1 / constrained_intra=0 / bframes=16 / b_pyramid=2 / b_adapt=2 / b_bias=0 / direct=3 / weightb=1 / open_gop=0 / weightp=2 / keyint=250 / keyint_min=126 / scenecut=0 / intra_refresh=0 / rc_lookahead=250 / rc=crf / mbtree=1 / crf=20.0 / qcomp=0.50 / qpmin=6 / qpmax=51 / qpstep=4 / vbv_maxrate=14000 / vbv_bufsize=14000 / crf_max=0.0 / nal_hrd=vbr / filler=0 / ip_ratio=1.40 / aq=1:0.80
Default : Yes
Forced : No

Audio
ID : 2
Format : E-AC-3
Format/Info : Enhanced Audio Coding 3
Format settings, Endianness : Big
Codec ID : A_EAC3
Duration : 12 min 22 s
Bit rate mode : Constant
Bit rate : 128 kb/s
Channel(s) : 2 channels
Channel positions : Front: L R
Sampling rate : 48.0 kHz
Frame rate : 187.500 FPS (256 SPF)
Compression mode : Lossy
Stream size : 11.3 MiB (6%)
Title : English
Language : English
Service kind : Complete Main
Default : Yes
Forced : No

Text #1
ID : 3
Format : UTF-8
Codec ID : S_TEXT/UTF8
Codec ID/Info : UTF-8 Plain Text
Duration : 11 min 47 s
Bit rate : 62 b/s
Count of elements : 268
Stream size : 5.42 KiB (0%)
Title : English [SDH]
Language : English
Default : No
Forced : No

Text #2
ID : 4
Format : UTF-8
Codec ID : S_TEXT/UTF8
Codec ID/Info : UTF-8 Plain Text
Duration : 11 min 53 s
Bit rate : 42 b/s
Count of elements : 144
Stream size : 3.72 KiB (0%)
Title : Indonesian
Language : Indonesian
Default : No
Forced : No





The Loch S02E51


The Loch S02E51


The Loch S02E51


The Loch S02E51


The Loch S02E51

All episodes