Index
# A B C D E F G H I J K L M N O P Q R S T U V W Y Z
Tags
Language
Tags
February 2023
Su Mo Tu We Th Fr Sa
29 30 31 1 2 3 4
5 6 7 8 9 10 11
12 13 14 15 16 17 18
19 20 21 22 23 24 25
26 27 28 1 2 3 4

Featured TV Shows


Supergirl S03E23

Posted By: Tavaz
1080p (FullHD) / WEBRip IMDb
Supergirl S03E23

Supergirl S03E23
WEBRip | MKV | 1920x1080 | Spanish | H264 @ 12812 kbps | AC-3 @ 384 kbps | 42 min 23 s | 3.91 GiB
Genre: Acción, Aventura, Drama, Ciencia ficción

Las aventuras de la prima de Superman en su propia carrera de superhéroe. “A los 12 años, Kara escapó del condenado planeta Krypton con la ayuda de sus padres, al mismo tiempo que el bebé Kal-El. Protegida y criada en la Tierra por su familia adoptiva, los Danvers, Kara creció a la sombra de su hermana de crianza, Alex (Chyler Leigh), y aprendió a ocultar los poderes fenomenales que comparte con su famoso primo con el fin de mantener su identidad en secreto”.

supergirl.s03e23.spanish.1080p.webrip.x264-fcc.mkv (3.9 GB)



General
Unique ID : 321689230504890999178428884985410292984 (0xF2031799370BDA55C0EF002B54C90CF8)
Complete name : ./supergirl.s03e23.spanish.1080p.webrip.x264-fcc.mkv
Format : Matroska
Format version : Version 4 / Version 2
File size : 3.91 GiB
Duration : 42 min 23 s
Overall bit rate : 13.2 Mb/s
Movie name : supergirl.s03e23.1080p.fcc
Encoded date : UTC 2018-06-29 17:59:33
Writing application : mkvmerge v19.0.0 ('Brave Captain') 64-bit
Writing library : libebml v1.3.5 + libmatroska v1.4.8

Video
ID : 1
Format : AVC
Format/Info : Advanced Video Codec
Format profile : High@L4
Format settings : CABAC / 4 Ref Frames
Format settings, CABAC : Yes
Format settings, RefFrames : 4 frames
Codec ID : V_MPEG4/ISO/AVC
Duration : 42 min 23 s
Bit rate : 12.8 Mb/s
Width : 1 920 pixels
Height : 1 080 pixels
Display aspect ratio : 16:9
Frame rate mode : Constant
Frame rate : 23.976 (24000/1001) FPS
Color space : YUV
Chroma subsampling : 4:2:0
Bit depth : 8 bits
Scan type : Progressive
Bits/(Pixel*Frame) : 0.258
Stream size : 3.79 GiB (97%)
Title : FCC 4ever
Language : Spanish
Default : Yes
Forced : No
Color range : Limited
Color primaries : BT.709
Transfer characteristics : BT.709
Matrix coefficients : BT.709

Audio
ID : 2
Format : AC-3
Format/Info : Audio Coding 3
Format settings, Endianness : Big
Codec ID : A_AC3
Duration : 42 min 23 s
Bit rate mode : Constant
Bit rate : 384 kb/s
Channel(s) : 6 channels
Channel positions : Front: L C R, Side: L R, LFE
Sampling rate : 48.0 kHz
Frame rate : 31.250 FPS (1536 SPF)
Bit depth : 16 bits
Compression mode : Lossy
Stream size : 116 MiB (3%)
Title : FCC 4ever
Language : Spanish
Service kind : Complete Main
Default : Yes
Forced : No





Supergirl S03E23


Supergirl S03E23


Supergirl S03E23


Supergirl S03E23


Supergirl S03E23

All episodes