Featured TV Shows


Superstore S03E08

Posted By: Tavaz
1080p (FullHD) / WEBRip IMDb
Superstore S03E08

Superstore S03E08
WEBRip | MKV | 1920x1080 | English | H264 @ 8521 kbps | E-AC-3 @ 640 kbps | 21 min 30 s | 1.38 GiB
Subtitles: English
Genre: Comedy

A hilarious workplace comedy about a unique family of employees at a super-sized mega store. From the bright-eyed newbies and the seen-it-all veterans to the clueless summer hires and the in-it-for-life managers, together they hilariously tackle the day-to-day grind of rabid bargain hunters, riot-causing sales and nap-worthy training sessions.

Superstore.S03E08.Viral.Video.1080p.AMZN.WEB-DL.DD+5.1.H.264-ViSUM.mkv (1.4 GB)



General
Unique ID : 188922483377706637568827904486584863868 (0x8E212594102290B9B9CDA67742D7CC7C)
Complete name : ./Superstore.S03E08.Viral.Video.1080p.AMZN.WEB-DL.DD+5.1.H.264-ViSUM.mkv
Format : Matroska
Format version : Version 4 / Version 2
File size : 1.38 GiB
Duration : 21 min 30 s
Overall bit rate mode : Variable
Overall bit rate : 9 164 kb/s
Encoded date : UTC 2018-01-06 22:15:51
Writing application : mkvmerge v13.0.0 ('The Juggler') 64bit
Writing library : libebml v1.3.4 + libmatroska v1.4.5

Video
ID : 1
Format : AVC
Format/Info : Advanced Video Codec
Format profile : High@L4
Format settings : CABAC / 4 Ref Frames
Format settings, CABAC : Yes
Format settings, RefFrames : 4 frames
Codec ID : V_MPEG4/ISO/AVC
Duration : 21 min 30 s
Bit rate mode : Variable
Bit rate : 8 522 kb/s
Maximum bit rate : 15.0 Mb/s
Width : 1 920 pixels
Height : 1 080 pixels
Display aspect ratio : 16:9
Frame rate mode : Constant
Frame rate : 23.976 (24000/1001) FPS
Color space : YUV
Chroma subsampling : 4:2:0
Bit depth : 8 bits
Scan type : Progressive
Bits/(Pixel*Frame) : 0.171
Stream size : 1.28 GiB (93%)
Default : Yes
Forced : No
Color range : Limited
Color primaries : BT.709
Transfer characteristics : BT.709
Matrix coefficients : BT.709

Audio
ID : 2
Format : E-AC-3
Format/Info : Enhanced Audio Coding 3
Format settings, Endianness : Big
Codec ID : A_EAC3
Duration : 21 min 30 s
Bit rate mode : Constant
Bit rate : 640 kb/s
Channel(s) : 6 channels
Channel positions : Front: L C R, Side: L R, LFE
Sampling rate : 48.0 kHz
Frame rate : 187.500 FPS (256 SPF)
Compression mode : Lossy
Stream size : 98.5 MiB (7%)
Language : English
Service kind : Complete Main
Default : Yes
Forced : No

Text #1
ID : 3
Format : UTF-8
Codec ID : S_TEXT/UTF8
Codec ID/Info : UTF-8 Plain Text
Duration : 21 min 21 s
Bit rate : 106 b/s
Count of elements : 539
Stream size : 16.7 KiB (0%)
Language : English
Default : No
Forced : No

Text #2
ID : 4
Format : UTF-8
Codec ID : S_TEXT/UTF8
Codec ID/Info : UTF-8 Plain Text
Duration : 21 min 21 s
Bit rate : 112 b/s
Count of elements : 566
Stream size : 17.7 KiB (0%)
Title : SDH
Language : English
Default : No
Forced : No





Superstore S03E08


Superstore S03E08


Superstore S03E08


Superstore S03E08


Superstore S03E08

All episodes