Featured TV Shows


Swamp Thing S01E07

Posted By: Tavaz
1080p (FullHD) / WEBRip IMDb
Swamp Thing S01E07

Swamp Thing S01E07
WEBRip | MKV | 1920x1080 | Français / English | H264 @ 7209 kbps | E-AC-3 @ 640 kbps | 44 min 41 s | 2.65 GiB
Subtitles: Français, English
Genre: Drama, Mystery


CDC researcher Abby Arcane investigates what seems to be a deadly swamp-born virus in a small town in Louisiana but she soon discovers that the swamp holds mystical and terrifying secrets. When unexplainable and chilling horrors emerge from the murky marsh, no one is safe.

309b20c3d0034724af516103a42a3c45.mkv (2.7 GB)



General
Unique ID : 275169327039148187548737341925536033967 (0xCF03AF46ACAEFFB5872379593A83ECAF)
Complete name : ./309b20c3d0034724af516103a42a3c45.mkv
Format : Matroska
Format version : Version 4 / Version 2
File size : 2.65 GiB
Duration : 44 min 41 s
Overall bit rate : 8 492 kb/s
Encoded date : UTC 2020-05-23 03:34:52
Writing application : mkvmerge v46.0.0 ('No Deeper Escape') 64-bit
Writing library : libebml v1.3.10 + libmatroska v1.5.2

Video
ID : 1
Format : AVC
Format/Info : Advanced Video Codec
Format profile : High@L4
Format settings : CABAC / 4 Ref Frames
Format settings, CABAC : Yes
Format settings, RefFrames : 4 frames
Codec ID : V_MPEG4/ISO/AVC
Duration : 44 min 41 s
Bit rate mode : Constant
Bit rate : 7 209 kb/s
Nominal bit rate : 10 000 kb/s
Width : 1 920 pixels
Height : 1 080 pixels
Display aspect ratio : 16:9
Frame rate mode : Constant
Frame rate : 23.976 (24000/1001) FPS
Color space : YUV
Chroma subsampling : 4:2:0
Bit depth : 8 bits
Scan type : Progressive
Bits/(Pixel*Frame) : 0.145
Stream size : 2.25 GiB (85%)
Default : Yes
Forced : No
Color range : Limited
Color primaries : BT.709
Transfer characteristics : BT.709
Matrix coefficients : BT.709

Audio #1
ID : 2
Format : E-AC-3
Format/Info : Enhanced Audio Coding 3
Format settings, Endianness : Big
Codec ID : A_EAC3
Duration : 44 min 41 s
Bit rate mode : Constant
Bit rate : 640 kb/s
Channel(s) : 6 channels
Channel positions : Front: L C R, Side: L R, LFE
Sampling rate : 48.0 kHz
Frame rate : 187.500 FPS (256 SPF)
Compression mode : Lossy
Stream size : 205 MiB (8%)
Title : French
Language : French
Service kind : Complete Main
Default : Yes
Forced : No

Audio #2
ID : 3
Format : E-AC-3
Format/Info : Enhanced Audio Coding 3
Format settings, Endianness : Big
Codec ID : A_EAC3
Duration : 44 min 41 s
Bit rate mode : Constant
Bit rate : 640 kb/s
Channel(s) : 6 channels
Channel positions : Front: L C R, Side: L R, LFE
Sampling rate : 48.0 kHz
Frame rate : 187.500 FPS (256 SPF)
Compression mode : Lossy
Stream size : 205 MiB (8%)
Title : English
Language : English
Service kind : Complete Main
Default : No
Forced : No

Text #1
ID : 4
Format : UTF-8
Codec ID : S_TEXT/UTF8
Codec ID/Info : UTF-8 Plain Text
Duration : 3 s 462 ms
Bit rate : 110 b/s
Count of elements : 1
Stream size : 48.0 Bytes (0%)
Title : French (Forced)
Language : French
Default : Yes
Forced : Yes

Text #2
ID : 5
Format : UTF-8
Codec ID : S_TEXT/UTF8
Codec ID/Info : UTF-8 Plain Text
Duration : 44 min 15 s
Bit rate : 60 b/s
Count of elements : 607
Stream size : 19.6 KiB (0%)
Title : French
Language : French
Default : No
Forced : No

Text #3
ID : 6
Format : UTF-8
Codec ID : S_TEXT/UTF8
Codec ID/Info : UTF-8 Plain Text
Duration : 43 min 37 s
Bit rate : 68 b/s
Count of elements : 673
Stream size : 22.0 KiB (0%)
Title : English (SDH)
Language : English
Default : No
Forced : No

Menu
00:00:00.000 : en:1. Studio Logo
00:00:19.000 : en:2. Previously On
00:01:16.000 : en:Scene 3
00:05:46.000 : en:4. Opening Credits
00:06:48.000 : en:Scene 5
00:08:33.000 : en:Scene 6
00:12:45.000 : en:Scene 7
00:14:41.000 : en:Scene 8
00:16:40.000 : en:Scene 9
00:18:33.000 : en:Scene 10
00:20:02.000 : en:Scene 11
00:29:38.000 : en:Scene 12
00:31:55.000 : en:Scene 13
00:34:20.000 : en:Scene 14
00:39:11.000 : en:Scene 15
00:42:10.000 : en:Scene 16
00:43:54.000 : en:Scene 17





Swamp Thing S01E07


Swamp Thing S01E07


Swamp Thing S01E07


Swamp Thing S01E07


Swamp Thing S01E07

All episodes