Index
# A B C D E F G H I J K L M N O P Q R S T U V W Y Z
Tags
Language
Tags
November 2022
Su Mo Tu We Th Fr Sa
30 31 1 2 3 4 5
6 7 8 9 10 11 12
13 14 15 16 17 18 19
20 21 22 23 24 25 26
27 28 29 30 1 2 3

Featured TV Shows


Rapunzel's Tangled Adventure S01E02

Posted By: Tavaz
1080p (FullHD) / WEB-DL IMDb
Rapunzel's Tangled Adventure S01E02

Rapunzel's Tangled Adventure S01E02
WEB-DL | MKV | 1920x1080 | English | H264 @ 8496 kbps | E-AC-3 @ 256 kbps | 22 min 33 s | 1.38 GiB
Subtitles: 中文, English
Genre: Animation


Set between “Tangled” and “Tangled Ever After,” this animated adventure/comedy series unfolds as Rapunzel acquaints herself with her parents, her kingdom and the people of Corona.

9046fcfce28246e4a3dc9eb1a90bd4e9.mkv (1.4 GB)



General
Unique ID : 109626300638385685962821303206550476689 (0x527941EC1F3E3D94EB26546A403C9791)
Complete name : ./9046fcfce28246e4a3dc9eb1a90bd4e9.mkv
Format : Matroska
Format version : Version 4 / Version 2
File size : 1.38 GiB
Duration : 22 min 33 s
Overall bit rate mode : Variable
Overall bit rate : 8 755 kb/s
Encoded date : UTC 2022-04-05 10:11:55
Writing application : mkvmerge v65.0.0 ('Too Much') 64-bit
Writing library : libebml v1.4.2 + libmatroska v1.6.4

Video
ID : 1
Format : AVC
Format/Info : Advanced Video Codec
Format profile : High@L4
Format settings : CABAC / 4 Ref Frames
Format settings, CABAC : Yes
Format settings, RefFrames : 4 frames
Codec ID : V_MPEG4/ISO/AVC
Duration : 22 min 33 s
Bit rate mode : Variable
Bit rate : 8 496 kb/s
Maximum bit rate : 12.7 Mb/s
Width : 1 920 pixels
Height : 1 080 pixels
Display aspect ratio : 16:9
Frame rate mode : Constant
Frame rate : 23.976 (24000/1001) FPS
Color space : YUV
Chroma subsampling : 4:2:0
Bit depth : 8 bits
Scan type : Progressive
Bits/(Pixel*Frame) : 0.171
Stream size : 1.34 GiB (97%)
Language : English
Default : Yes
Forced : No
Color range : Limited
Color primaries : BT.709
Transfer characteristics : BT.709
Matrix coefficients : BT.709

Audio
ID : 2
Format : E-AC-3
Format/Info : Enhanced Audio Coding 3
Format settings, Endianness : Big
Codec ID : A_EAC3
Duration : 22 min 33 s
Bit rate mode : Constant
Bit rate : 256 kb/s
Channel(s) : 6 channels
Channel positions : Front: L C R, Side: L R, LFE
Sampling rate : 48.0 kHz
Frame rate : 187.500 FPS (256 SPF)
Compression mode : Lossy
Stream size : 41.3 MiB (3%)
Language : English
Service kind : Complete Main
Default : Yes
Forced : No

Text #1
ID : 3
Format : UTF-8
Codec ID : S_TEXT/UTF8
Codec ID/Info : UTF-8 Plain Text
Duration : 22 min 26 s
Bit rate : 79 b/s
Count of elements : 422
Stream size : 13.0 KiB (0%)
Language : English
Default : No
Forced : No

Text #2
ID : 4
Format : UTF-8
Codec ID : S_TEXT/UTF8
Codec ID/Info : UTF-8 Plain Text
Duration : 22 min 32 s
Bit rate : 87 b/s
Count of elements : 490
Stream size : 14.4 KiB (0%)
Title : SDH
Language : English
Default : No
Forced : No

Text #3
ID : 5
Format : UTF-8
Codec ID : S_TEXT/UTF8
Codec ID/Info : UTF-8 Plain Text
Duration : 22 min 25 s
Bit rate : 67 b/s
Count of elements : 409
Stream size : 11.1 KiB (0%)
Title : Hong Kong
Language : Chinese
Default : No
Forced : No

Text #4
ID : 6
Format : UTF-8
Codec ID : S_TEXT/UTF8
Codec ID/Info : UTF-8 Plain Text
Duration : 22 min 25 s
Bit rate : 67 b/s
Count of elements : 409
Stream size : 11.1 KiB (0%)
Title : Traditional
Language : Chinese
Default : No
Forced : No

Menu
00:00:00.041 : en:Intro
00:00:38.830 : en:Chapter 02
00:22:04.324 : en:Credits





Rapunzel's Tangled Adventure S01E02


Rapunzel's Tangled Adventure S01E02


Rapunzel's Tangled Adventure S01E02


Rapunzel's Tangled Adventure S01E02


Rapunzel's Tangled Adventure S01E02

All episodes