Featured TV Shows


Teachers S03E03

Posted By: Tavaz
1080p (FullHD) / HDTV IMDb
Teachers S03E03

Teachers S03E03
HDTV | MKV | 1920x1080 | French / English | H264 @ 3989 kbps | MPEG Audio @ 384 kbps | 19 min 42 s | 671 MiB
Subtitles: French
Genre: Comedy


Written by and starring acclaimed comedy troupe The Katydids, Teachers shows their hilariously warped perspective as six elementary school teachers trying to mold young minds, even though their own lives aren’t really together.

592476237f4d4ff185143fcd5e0779a9.mkv (670.9 MB)



General
Unique ID : 277757650037660558331704705651900465980 (0xD0F62D73DA318D12BCB0E0BC4FC8C33C)
Complete name : ./592476237f4d4ff185143fcd5e0779a9.mkv
Format : Matroska
Format version : Version 4 / Version 2
File size : 671 MiB
Duration : 19 min 42 s
Overall bit rate : 4 760 kb/s
Encoded date : UTC 2020-01-16 21:08:33
Writing application : mkvmerge v42.0.0 ('Overtime') 64-bit
Writing library : libebml v1.3.10 + libmatroska v1.5.2

Video
ID : 1
Format : AVC
Format/Info : Advanced Video Codec
Format profile : High@L4
Format settings : CABAC / 4 Ref Frames
Format settings, CABAC : Yes
Format settings, RefFrames : 4 frames
Format settings, GOP : M=2, N=24
Codec ID : V_MPEG4/ISO/AVC
Duration : 19 min 42 s
Bit rate : 3 989 kb/s
Width : 1 920 pixels
Height : 1 080 pixels
Display aspect ratio : 16:9
Frame rate mode : Constant
Frame rate : 25.000 FPS
Standard : Component
Color space : YUV
Chroma subsampling : 4:2:0
Bit depth : 8 bits
Scan type : MBAFF
Scan type, store method : Interleaved fields
Scan order : Top Field First
Bits/(Pixel*Frame) : 0.077
Stream size : 562 MiB (84%)
Default : No
Forced : No
Color range : Limited
Color primaries : BT.709
Transfer characteristics : BT.709
Matrix coefficients : BT.709

Audio #1
ID : 2
Format : MPEG Audio
Format version : Version 1
Format profile : Layer 2
Codec ID : A_MPEG/L2
Codec ID/Hint : MP2
Duration : 19 min 42 s
Bit rate mode : Constant
Bit rate : 384 kb/s
Channel(s) : 2 channels
Sampling rate : 48.0 kHz
Frame rate : 41.667 FPS (1152 SPF)
Compression mode : Lossy
Stream size : 54.1 MiB (8%)
Title : French
Language : French
Default : Yes
Forced : No

Audio #2
ID : 3
Format : MPEG Audio
Format version : Version 1
Format profile : Layer 2
Codec ID : A_MPEG/L2
Codec ID/Hint : MP2
Duration : 19 min 42 s
Bit rate mode : Constant
Bit rate : 384 kb/s
Channel(s) : 2 channels
Sampling rate : 48.0 kHz
Frame rate : 41.667 FPS (1152 SPF)
Compression mode : Lossy
Stream size : 54.1 MiB (8%)
Title : English
Language : English
Default : No
Forced : No

Text
ID : 4
Format : UTF-8
Codec ID : S_TEXT/UTF8
Codec ID/Info : UTF-8 Plain Text
Duration : 18 min 45 s
Bit rate : 81 b/s
Count of elements : 378
Stream size : 11.2 KiB (0%)
Title : French
Language : French
Default : No
Forced : No





Teachers S03E03


Teachers S03E03


Teachers S03E03


Teachers S03E03


Teachers S03E03

All episodes