Index
# A B C D E F G H I J K L M N O P Q R S T U V W Y Z
Tags
Language
Tags

Featured TV Shows


Ted Lasso S01E04

Posted By: Tavaz
720p (HD) / WEBRip IMDb
Ted Lasso S01E04

Ted Lasso S01E04
WEBRip | MKV | 1356x678 | English | H264 @ 2810 kbps | E-AC-3 @ 768 kbps | 33 min 38 s | 863 MiB
Subtitles: ภาษาไทย, Français, tiếng Việt, Español, Eesti keel, Slovenčina, 日本語, עברית, Русский, Ελληνικά, Bahasa Indonesia, Dansk, Nederlands, Български, Українська, 中文, Suomi, Polski, Magyar, Türkçe, English, हिन्दी, العربية, Slovenščina, Deutsch, Svenska, Italiano, Português, Čeština
Genre: Comedy


Ted Lasso, an American football coach, moves to England when he’s hired to manage a soccer team—despite having no experience. With cynical players and a doubtful town, will he get them to see the Ted Lasso Way?

047d89d1d752442183778b9a071ad79a.mkv (863.2 MB)



General
Unique ID : 182630801979122971615873838904348218771 (0x896569BC53EDA37F694B230D48B39593)
Complete name : ./047d89d1d752442183778b9a071ad79a.mkv
Format : Matroska
Format version : Version 4 / Version 2
File size : 863 MiB
Duration : 33 min 38 s
Overall bit rate : 3 588 kb/s
Encoded date : UTC 2020-08-21 04:01:38
Writing application : mkvmerge v46.0.0 ('No Deeper Escape') 64-bit
Writing library : libebml v1.3.10 + libmatroska v1.5.2

Video
ID : 1
Format : AVC
Format/Info : Advanced Video Codec
Format profile : High@L3.2
Format settings : CABAC / 5 Ref Frames
Format settings, CABAC : Yes
Format settings, RefFrames : 5 frames
Codec ID : V_MPEG4/ISO/AVC
Duration : 33 min 38 s
Bit rate : 2 810 kb/s
Width : 1 356 pixels
Height : 678 pixels
Display aspect ratio : 2.000
Frame rate mode : Constant
Frame rate : 23.976 (24000/1001) FPS
Color space : YUV
Chroma subsampling : 4:2:0
Bit depth : 8 bits
Scan type : Progressive
Bits/(Pixel*Frame) : 0.127
Stream size : 676 MiB (78%)
Default : Yes
Forced : No
Color range : Limited
Color primaries : BT.709
Transfer characteristics : BT.709
Matrix coefficients : BT.709

Audio
ID : 2
Format : E-AC-3
Format/Info : Enhanced Audio Coding 3
Format profile : E-AC-3+Atmos / E-AC-3
Format settings, Endianness : Big
Codec ID : A_EAC3
Duration : 33 min 38 s
Bit rate mode : Constant
Bit rate : 768 kb/s
Channel(s) : 15 objects / 6 channels
Channel positions : 15 objects / Front: L C R, Side: L R, LFE
Sampling rate : 48.0 kHz
Frame rate : 187.500 FPS (256 SPF)
Compression mode : Lossy
Stream size : 185 MiB (21%)
Title : English
Language : English
Service kind : Complete Main
Default : No
Forced : No

Text #1
ID : 3
Format : UTF-8
Codec ID : S_TEXT/UTF8
Codec ID/Info : UTF-8 Plain Text
Duration : 33 min 24 s
Bit rate : 129 b/s
Count of elements : 583
Stream size : 31.7 KiB (0%)
Title : العربية
Language : Arabic
Default : No
Forced : No

Text #2
ID : 4
Format : UTF-8
Codec ID : S_TEXT/UTF8
Codec ID/Info : UTF-8 Plain Text
Duration : 33 min 24 s
Bit rate : 70 b/s
Count of elements : 581
Stream size : 17.1 KiB (0%)
Title : Português (Brasil)
Language : Portuguese
Default : No
Forced : No

Text #3
ID : 5
Format : UTF-8
Codec ID : S_TEXT/UTF8
Codec ID/Info : UTF-8 Plain Text
Duration : 33 min 24 s
Bit rate : 114 b/s
Count of elements : 563
Stream size : 27.9 KiB (0%)
Title : български
Language : Bulgarian
Default : No
Forced : No

Text #4
ID : 6
Format : UTF-8
Codec ID : S_TEXT/UTF8
Codec ID/Info : UTF-8 Plain Text
Duration : 33 min 24 s
Bit rate : 74 b/s
Count of elements : 536
Stream size : 18.2 KiB (0%)
Title : Čeština
Language : Czech
Default : No
Forced : No

Text #5
ID : 7
Format : UTF-8
Codec ID : S_TEXT/UTF8
Codec ID/Info : UTF-8 Plain Text
Duration : 33 min 24 s
Bit rate : 72 b/s
Count of elements : 439
Stream size : 17.7 KiB (0%)
Title : dansk
Language : Danish
Default : No
Forced : No

Text #6
ID : 8
Format : UTF-8
Codec ID : S_TEXT/UTF8
Codec ID/Info : UTF-8 Plain Text
Duration : 33 min 24 s
Bit rate : 58 b/s
Count of elements : 464
Stream size : 14.3 KiB (0%)
Title : Nederlands
Language : Dutch
Default : No
Forced : No

Text #7
ID : 9
Format : UTF-8
Codec ID : S_TEXT/UTF8
Codec ID/Info : UTF-8 Plain Text
Duration : 32 min 49 s
Bit rate : 87 b/s
Count of elements : 579
Stream size : 21.0 KiB (0%)
Title : English
Language : English
Default : No
Forced : No

Text #8
ID : 10
Format : UTF-8
Codec ID : S_TEXT/UTF8
Codec ID/Info : UTF-8 Plain Text
Duration : 33 min 2 s
Bit rate : 96 b/s
Count of elements : 643
Stream size : 23.4 KiB (0%)
Title : English CC
Language : English
Default : No
Forced : No

Text #9
ID : 11
Format : UTF-8
Codec ID : S_TEXT/UTF8
Codec ID/Info : UTF-8 Plain Text
Duration : 33 min 24 s
Bit rate : 77 b/s
Count of elements : 540
Stream size : 18.9 KiB (0%)
Title : eesti
Language : Estonian
Default : No
Forced : No

Text #10
ID : 12
Format : UTF-8
Codec ID : S_TEXT/UTF8
Codec ID/Info : UTF-8 Plain Text
Duration : 33 min 24 s
Bit rate : 73 b/s
Count of elements : 581
Stream size : 18.0 KiB (0%)
Title : Español (España)
Language : Spanish
Default : No
Forced : No

Text #11
ID : 13
Format : UTF-8
Codec ID : S_TEXT/UTF8
Codec ID/Info : UTF-8 Plain Text
Duration : 33 min 24 s
Bit rate : 75 b/s
Count of elements : 577
Stream size : 18.5 KiB (0%)
Title : Suomi
Language : Finnish
Default : No
Forced : No

Text #12
ID : 14
Format : UTF-8
Codec ID : S_TEXT/UTF8
Codec ID/Info : UTF-8 Plain Text
Duration : 33 min 24 s
Bit rate : 73 b/s
Count of elements : 604
Stream size : 17.9 KiB (0%)
Title : Français (Canada)
Language : French
Default : No
Forced : No

Text #13
ID : 15
Format : UTF-8
Codec ID : S_TEXT/UTF8
Codec ID/Info : UTF-8 Plain Text
Duration : 33 min 24 s
Bit rate : 73 b/s
Count of elements : 604
Stream size : 17.9 KiB (0%)
Title : Français (France)
Language : French
Default : No
Forced : No

Text #14
ID : 16
Format : UTF-8
Codec ID : S_TEXT/UTF8
Codec ID/Info : UTF-8 Plain Text
Duration : 33 min 24 s
Bit rate : 71 b/s
Count of elements : 556
Stream size : 17.6 KiB (0%)
Title : Deutsch
Language : German
Default : No
Forced : No

Text #15
ID : 17
Format : UTF-8
Codec ID : S_TEXT/UTF8
Codec ID/Info : UTF-8 Plain Text
Duration : 33 min 24 s
Bit rate : 147 b/s
Count of elements : 583
Stream size : 36.2 KiB (0%)
Title : Ελληνικά
Language : Greek
Default : No
Forced : No

Text #16
ID : 18
Format : UTF-8
Codec ID : S_TEXT/UTF8
Codec ID/Info : UTF-8 Plain Text
Duration : 33 min 24 s
Bit rate : 110 b/s
Count of elements : 583
Stream size : 27.1 KiB (0%)
Title : עברית
Language : Hebrew
Default : No
Forced : No

Text #17
ID : 19
Format : UTF-8
Codec ID : S_TEXT/UTF8
Codec ID/Info : UTF-8 Plain Text
Duration : 33 min 24 s
Bit rate : 194 b/s
Count of elements : 584
Stream size : 47.5 KiB (0%)
Title : हिन्दी
Language : Hindi
Default : No
Forced : No

Text #18
ID : 20
Format : UTF-8
Codec ID : S_TEXT/UTF8
Codec ID/Info : UTF-8 Plain Text
Duration : 33 min 24 s
Bit rate : 86 b/s
Count of elements : 573
Stream size : 21.2 KiB (0%)
Title : magyar
Language : Hungarian
Default : No
Forced : No

Text #19
ID : 21
Format : UTF-8
Codec ID : S_TEXT/UTF8
Codec ID/Info : UTF-8 Plain Text
Duration : 33 min 24 s
Bit rate : 77 b/s
Count of elements : 582
Stream size : 18.8 KiB (0%)
Title : Bahasa Indonesia
Language : Indonesian
Default : No
Forced : No

Text #20
ID : 22
Format : UTF-8
Codec ID : S_TEXT/UTF8
Codec ID/Info : UTF-8 Plain Text
Duration : 33 min 24 s
Bit rate : 81 b/s
Count of elements : 581
Stream size : 20.0 KiB (0%)
Title : Italiano
Language : Italian
Default : No
Forced : No

Text #21
ID : 23
Format : UTF-8
Codec ID : S_TEXT/UTF8
Codec ID/Info : UTF-8 Plain Text
Duration : 33 min 30 s
Bit rate : 65 b/s
Count of elements : 588
Stream size : 16.0 KiB (0%)
Title : 日本語
Language : Japanese
Default : No
Forced : No

Text #22
ID : 24
Format : UTF-8
Codec ID : S_TEXT/UTF8
Codec ID/Info : UTF-8 Plain Text
Duration : 33 min 24 s
Bit rate : 85 b/s
Count of elements : 582
Stream size : 20.9 KiB (0%)
Title : latviešu
Language : Latvian
Default : No
Forced : No

Text #23
ID : 25
Format : UTF-8
Codec ID : S_TEXT/UTF8
Codec ID/Info : UTF-8 Plain Text
Duration : 33 min 24 s
Bit rate : 86 b/s
Count of elements : 579
Stream size : 21.1 KiB (0%)
Title : lietuvių
Language : Lithuanian
Default : No
Forced : No

Text #24
ID : 26
Format : UTF-8
Codec ID : S_TEXT/UTF8
Codec ID/Info : UTF-8 Plain Text
Duration : 33 min 24 s
Bit rate : 85 b/s
Count of elements : 582
Stream size : 20.9 KiB (0%)
Title : Bahasa Melayu
Language : Malay
Default : No
Forced : No

Text #25
ID : 27
Format : UTF-8
Codec ID : S_TEXT/UTF8
Codec ID/Info : UTF-8 Plain Text
Duration : 33 min 24 s
Bit rate : 76 b/s
Count of elements : 583
Stream size : 18.7 KiB (0%)
Title : 中文(简体)
Language : Chinese
Default : No
Forced : No

Text #26
ID : 28
Format : UTF-8
Codec ID : S_TEXT/UTF8
Codec ID/Info : UTF-8 Plain Text
Duration : 33 min 24 s
Bit rate : 74 b/s
Count of elements : 584
Stream size : 18.3 KiB (0%)
Title : 中文(繁體)
Language : Chinese
Default : No
Forced : No

Text #27
ID : 29
Format : UTF-8
Codec ID : S_TEXT/UTF8
Codec ID/Info : UTF-8 Plain Text
Duration : 33 min 24 s
Bit rate : 69 b/s
Count of elements : 524
Stream size : 17.1 KiB (0%)
Title : norsk
Language : Norwegian
Default : No
Forced : No

Text #28
ID : 30
Format : UTF-8
Codec ID : S_TEXT/UTF8
Codec ID/Info : UTF-8 Plain Text
Duration : 33 min 24 s
Bit rate : 79 b/s
Count of elements : 576
Stream size : 19.5 KiB (0%)
Title : polski
Language : Polish
Default : No
Forced : No

Text #29
ID : 31
Format : UTF-8
Codec ID : S_TEXT/UTF8
Codec ID/Info : UTF-8 Plain Text
Duration : 33 min 24 s
Bit rate : 71 b/s
Count of elements : 556
Stream size : 17.6 KiB (0%)
Title : Português
Language : Portuguese
Default : No
Forced : No

Text #30
ID : 32
Format : UTF-8
Codec ID : S_TEXT/UTF8
Codec ID/Info : UTF-8 Plain Text
Duration : 33 min 24 s
Bit rate : 131 b/s
Count of elements : 577
Stream size : 32.1 KiB (0%)
Title : Русский
Language : Russian
Default : No
Forced : No

Text #31
ID : 33
Format : UTF-8
Codec ID : S_TEXT/UTF8
Codec ID/Info : UTF-8 Plain Text
Duration : 33 min 24 s
Bit rate : 71 b/s
Count of elements : 566
Stream size : 17.4 KiB (0%)
Title : Slovenčina
Language : Slovak
Default : No
Forced : No

Text #32
ID : 34
Format : UTF-8
Codec ID : S_TEXT/UTF8
Codec ID/Info : UTF-8 Plain Text
Duration : 33 min 24 s
Bit rate : 59 b/s
Count of elements : 531
Stream size : 14.4 KiB (0%)
Title : slovenščina
Language : Slovenian
Default : No
Forced : No

Text #33
ID : 35
Format : UTF-8
Codec ID : S_TEXT/UTF8
Codec ID/Info : UTF-8 Plain Text
Duration : 33 min 24 s
Bit rate : 79 b/s
Count of elements : 577
Stream size : 19.3 KiB (0%)
Title : Español (Latinoamérica)
Language : Spanish
Default : No
Forced : No

Text #34
ID : 36
Format : UTF-8
Codec ID : S_TEXT/UTF8
Codec ID/Info : UTF-8 Plain Text
Duration : 33 min 24 s
Bit rate : 77 b/s
Count of elements : 582
Stream size : 19.0 KiB (0%)
Title : Svenska
Language : Swedish
Default : No
Forced : No

Text #35
ID : 37
Format : UTF-8
Codec ID : S_TEXT/UTF8
Codec ID/Info : UTF-8 Plain Text
Duration : 33 min 24 s
Bit rate : 258 b/s
Count of elements : 583
Stream size : 63.3 KiB (0%)
Title : தமிழ்
Language : Tamil
Default : No
Forced : No

Text #36
ID : 38
Format : UTF-8
Codec ID : S_TEXT/UTF8
Codec ID/Info : UTF-8 Plain Text
Duration : 33 min 24 s
Bit rate : 215 b/s
Count of elements : 583
Stream size : 52.8 KiB (0%)
Title : తెలుగు
Language : Telugu
Default : No
Forced : No

Text #37
ID : 39
Format : UTF-8
Codec ID : S_TEXT/UTF8
Codec ID/Info : UTF-8 Plain Text
Duration : 33 min 24 s
Bit rate : 205 b/s
Count of elements : 583
Stream size : 50.3 KiB (0%)
Title : ไทย
Language : Thai
Default : No
Forced : No

Text #38
ID : 40
Format : UTF-8
Codec ID : S_TEXT/UTF8
Codec ID/Info : UTF-8 Plain Text
Duration : 33 min 24 s
Bit rate : 83 b/s
Count of elements : 577
Stream size : 20.5 KiB (0%)
Title : Turkish
Language : Turkish
Default : No
Forced : No

Text #39
ID : 41
Format : UTF-8
Codec ID : S_TEXT/UTF8
Codec ID/Info : UTF-8 Plain Text
Duration : 33 min 24 s
Bit rate : 123 b/s
Count of elements : 584
Stream size : 30.2 KiB (0%)
Title : українська
Language : Ukrainian
Default : No
Forced : No

Text #40
ID : 42
Format : UTF-8
Codec ID : S_TEXT/UTF8
Codec ID/Info : UTF-8 Plain Text
Duration : 33 min 24 s
Bit rate : 104 b/s
Count of elements : 582
Stream size : 25.6 KiB (0%)
Title : Tiếng Việt
Language : Vietnamese
Default : No
Forced : No

Text #41
ID : 43
Format : UTF-8
Codec ID : S_TEXT/UTF8
Codec ID/Info : UTF-8 Plain Text
Duration : 33 min 24 s
Bit rate : 70 b/s
Count of elements : 580
Stream size : 17.2 KiB (0%)
Title : 廣東話
Language : Chinese
Default : No
Forced : No





Ted Lasso S01E04


Ted Lasso S01E04


Ted Lasso S01E04


Ted Lasso S01E04


Ted Lasso S01E04

All episodes