Index
# A B C D E F G H I J K L M N O P Q R S T U V W Y Z
Tags
Language
Tags

Featured TV Shows


Ted Lasso S01E07

Posted By: Tavaz
1080p (FullHD) / WEB-DL IMDb
Ted Lasso S01E07

Ted Lasso S01E07
WEB-DL | MKV | 1920x958 | H264 @ 9727 kbps | E-AC-3 @ 768 kbps | 32 min 8 s | 2.40 GiB
Genre: Comedy


Ted Lasso, an American football coach, moves to England when he’s hired to manage a soccer team—despite having no experience. With cynical players and a doubtful town, will he get them to see the Ted Lasso Way?

ca43ce196ac64401b2a645cd1d04ee34.mkv (2.4 GB)



General
Unique ID : 138244209923253724732789611202502264993 (0x6800DDC94E525CEFCC82C357974108A1)
Complete name : ./ca43ce196ac64401b2a645cd1d04ee34.mkv
Format : Matroska
Format version : Version 4 / Version 2
File size : 2.40 GiB
Duration : 32 min 8 s
Overall bit rate : 10.7 Mb/s
Writing application : Lavf58.42.100
Writing library : Lavf58.42.100
ErrorDetectionType : Per level 1

Video
ID : 1
Format : AVC
Format/Info : Advanced Video Codec
Format profile : High@L4
Format settings : CABAC / 4 Ref Frames
Format settings, CABAC : Yes
Format settings, RefFrames : 4 frames
Codec ID : V_MPEG4/ISO/AVC
Duration : 32 min 8 s
Bit rate : 9 728 kb/s
Width : 1 920 pixels
Height : 958 pixels
Display aspect ratio : 2.004
Frame rate mode : Constant
Frame rate : 23.976 (24000/1001) FPS
Color space : YUV
Chroma subsampling : 4:2:0
Bit depth : 8 bits
Scan type : Progressive
Bits/(Pixel*Frame) : 0.221
Stream size : 2.18 GiB (91%)
Default : Yes
Forced : No
Color range : Limited
Color primaries : BT.709
Transfer characteristics : BT.709
Matrix coefficients : BT.709

Audio
ID : 2
Format : E-AC-3
Format/Info : Enhanced Audio Coding 3
Format profile : E-AC-3+Atmos / E-AC-3
Format settings, Endianness : Big
Codec ID : A_EAC3
Duration : 32 min 8 s
Bit rate mode : Constant
Bit rate : 768 kb/s
Channel(s) : 15 objects / 6 channels
Channel positions : 15 objects / Front: L C R, Side: L R, LFE
Sampling rate : 48.0 kHz
Frame rate : 187.500 FPS (256 SPF)
Bit depth : 32 bits
Compression mode : Lossy
Stream size : 177 MiB (7%)
Service kind : Complete Main
Default : No
Forced : No

Text
ID : 3
Format : ASS
Codec ID : S_TEXT/ASS
Codec ID/Info : Advanced Sub Station Alpha
Duration : 30 min 24 s
Compression mode : Lossless
Writing library : Lavc58.80.100 ssa
Default : Yes
Forced : No





Ted Lasso S01E07


Ted Lasso S01E07


Ted Lasso S01E07


Ted Lasso S01E07


Ted Lasso S01E07

All episodes