Index
# A B C D E F G H I J K L M N O P Q R S T U V W Y Z
Tags
Language
Tags

Featured TV Shows


Ted Lasso S02E04

Posted By: Tavaz
1080p (FullHD) / WEBRip IMDb
Ted Lasso S02E04

Ted Lasso S02E04
WEBRip | MKV | 1920x960 | English | H264 @ 9781 kbps | E-AC-3 @ 768 kbps | 30 min 28 s | 2.25 GiB
Subtitles: ภาษาไทย, Français, tiếng Việt, Español, Eesti keel, Slovenčina, 日本語, עברית, 한국어, Русский, Ελληνικά, Bahasa Indonesia, Dansk, Nederlands, Български, Українська, 中文, Suomi, Polski, Magyar, Türkçe, English, हिन्दी, العربية, Slovenščina, Deutsch, Svenska, Italiano, Português, Čeština
Genre: Comedy


Ted Lasso, an American football coach, moves to England when he’s hired to manage a soccer team—despite having no experience. With cynical players and a doubtful town, will he get them to see the Ted Lasso Way?

25ff5e2c05434001b4f32c5254be4ad5.mkv (2.2 GB)



General
Unique ID : 166007543217838380166403100397173024602 (0x7CE3E3CD0FBAC4299DB34EE35CA9275A)
Complete name : ./25ff5e2c05434001b4f32c5254be4ad5.mkv
Format : Matroska
Format version : Version 4 / Version 2
File size : 2.25 GiB
Duration : 30 min 28 s
Overall bit rate : 10.6 Mb/s
Encoded date : UTC 2021-08-13 04:00:26
Writing application : mkvmerge v60.0.0 ('Are We Copies?') 64-bit
Writing library : libebml v1.4.2 + libmatroska v1.6.4

Video
ID : 1
Format : AVC
Format/Info : Advanced Video Codec
Format profile : High@L4
Format settings : CABAC / 4 Ref Frames
Format settings, CABAC : Yes
Format settings, RefFrames : 4 frames
Codec ID : V_MPEG4/ISO/AVC
Duration : 30 min 28 s
Bit rate : 9 782 kb/s
Width : 1 920 pixels
Height : 960 pixels
Display aspect ratio : 2.000
Frame rate mode : Constant
Frame rate : 23.976 (24000/1001) FPS
Color space : YUV
Chroma subsampling : 4:2:0
Bit depth : 8 bits
Scan type : Progressive
Bits/(Pixel*Frame) : 0.221
Stream size : 2.08 GiB (93%)
Default : Yes
Forced : No
Color range : Limited
Color primaries : BT.709
Transfer characteristics : BT.709
Matrix coefficients : BT.709

Audio
ID : 2
Format : E-AC-3
Format/Info : Enhanced Audio Coding 3
Format profile : E-AC-3+Atmos / E-AC-3
Format settings, Endianness : Big
Codec ID : A_EAC3
Duration : 30 min 28 s
Bit rate mode : Constant
Bit rate : 768 kb/s
Channel(s) : 15 objects / 6 channels
Channel positions : 15 objects / Front: L C R, Side: L R, LFE
Sampling rate : 48.0 kHz
Frame rate : 187.500 FPS (256 SPF)
Compression mode : Lossy
Stream size : 167 MiB (7%)
Title : English
Language : English
Service kind : Complete Main
Default : Yes
Forced : No

Text #1
ID : 3
Format : UTF-8
Codec ID : S_TEXT/UTF8
Codec ID/Info : UTF-8 Plain Text
Duration : 30 min 7 s
Bit rate : 115 b/s
Count of elements : 474
Stream size : 25.5 KiB (0%)
Title : Arabic
Language : Arabic
Default : No
Forced : No

Text #2
ID : 4
Format : UTF-8
Codec ID : S_TEXT/UTF8
Codec ID/Info : UTF-8 Plain Text
Duration : 30 min 7 s
Bit rate : 104 b/s
Count of elements : 462
Stream size : 23.0 KiB (0%)
Title : Bulgarian
Language : Bulgarian
Default : No
Forced : No

Text #3
ID : 5
Format : UTF-8
Codec ID : S_TEXT/UTF8
Codec ID/Info : UTF-8 Plain Text
Duration : 30 min 8 s
Bit rate : 68 b/s
Count of elements : 481
Stream size : 15.1 KiB (0%)
Title : Traditional
Language : Chinese
Default : No
Forced : No

Text #4
ID : 6
Format : UTF-8
Codec ID : S_TEXT/UTF8
Codec ID/Info : UTF-8 Plain Text
Duration : 30 min 8 s
Bit rate : 66 b/s
Count of elements : 480
Stream size : 14.6 KiB (0%)
Title : Simplified
Language : Chinese
Default : No
Forced : No

Text #5
ID : 7
Format : UTF-8
Codec ID : S_TEXT/UTF8
Codec ID/Info : UTF-8 Plain Text
Duration : 30 min 8 s
Bit rate : 68 b/s
Count of elements : 481
Stream size : 15.1 KiB (0%)
Title : Cantonese
Language : Chinese
Default : No
Forced : No

Text #6
ID : 8
Format : UTF-8
Codec ID : S_TEXT/UTF8
Codec ID/Info : UTF-8 Plain Text
Duration : 30 min 7 s
Bit rate : 67 b/s
Count of elements : 457
Stream size : 14.8 KiB (0%)
Title : Czech
Language : Czech
Default : No
Forced : No

Text #7
ID : 9
Format : UTF-8
Codec ID : S_TEXT/UTF8
Codec ID/Info : UTF-8 Plain Text
Duration : 30 min 7 s
Bit rate : 70 b/s
Count of elements : 456
Stream size : 15.6 KiB (0%)
Title : Danish
Language : Danish
Default : No
Forced : No

Text #8
ID : 10
Format : UTF-8
Codec ID : S_TEXT/UTF8
Codec ID/Info : UTF-8 Plain Text
Duration : 30 min 7 s
Bit rate : 57 b/s
Count of elements : 327
Stream size : 12.8 KiB (0%)
Title : Dutch
Language : Dutch
Default : No
Forced : No

Text #9
ID : 11
Format : UTF-8
Codec ID : S_TEXT/UTF8
Codec ID/Info : UTF-8 Plain Text
Duration : 30 min 18 s
Bit rate : 88 b/s
Count of elements : 552
Stream size : 19.7 KiB (0%)
Title : English SDH
Language : English
Default : No
Forced : No

Text #10
ID : 12
Format : UTF-8
Codec ID : S_TEXT/UTF8
Codec ID/Info : UTF-8 Plain Text
Bit rate : 0 b/s
Count of elements : 0
Stream size : 0.00 Byte (0%)
Title : English Forced
Language : English
Default : No
Forced : Yes

Text #11
ID : 13
Format : UTF-8
Codec ID : S_TEXT/UTF8
Codec ID/Info : UTF-8 Plain Text
Duration : 30 min 3 s
Bit rate : 75 b/s
Count of elements : 471
Stream size : 16.6 KiB (0%)
Title : English
Language : English
Default : No
Forced : No

Text #12
ID : 14
Format : UTF-8
Codec ID : S_TEXT/UTF8
Codec ID/Info : UTF-8 Plain Text
Duration : 30 min 7 s
Bit rate : 67 b/s
Count of elements : 429
Stream size : 15.0 KiB (0%)
Title : Estonian
Language : Estonian
Default : No
Forced : No

Text #13
ID : 15
Format : UTF-8
Codec ID : S_TEXT/UTF8
Codec ID/Info : UTF-8 Plain Text
Duration : 30 min 7 s
Bit rate : 67 b/s
Count of elements : 467
Stream size : 14.8 KiB (0%)
Title : Finnish
Language : Finnish
Default : No
Forced : No

Text #14
ID : 16
Format : UTF-8
Codec ID : S_TEXT/UTF8
Codec ID/Info : UTF-8 Plain Text
Duration : 29 min 56 s
Bit rate : 65 b/s
Count of elements : 486
Stream size : 14.4 KiB (0%)
Title : French Canadian
Language : French
Default : No
Forced : No

Text #15
ID : 17
Format : UTF-8
Codec ID : S_TEXT/UTF8
Codec ID/Info : UTF-8 Plain Text
Duration : 29 min 56 s
Bit rate : 65 b/s
Count of elements : 486
Stream size : 14.4 KiB (0%)
Title : French
Language : French
Default : No
Forced : No

Text #16
ID : 18
Format : UTF-8
Codec ID : S_TEXT/UTF8
Codec ID/Info : UTF-8 Plain Text
Duration : 30 min 7 s
Bit rate : 68 b/s
Count of elements : 463
Stream size : 15.1 KiB (0%)
Title : German
Language : German
Default : No
Forced : No

Text #17
ID : 19
Format : UTF-8
Codec ID : S_TEXT/UTF8
Codec ID/Info : UTF-8 Plain Text
Duration : 30 min 7 s
Bit rate : 119 b/s
Count of elements : 458
Stream size : 26.3 KiB (0%)
Title : Greek
Language : Greek
Default : No
Forced : No

Text #18
ID : 20
Format : UTF-8
Codec ID : S_TEXT/UTF8
Codec ID/Info : UTF-8 Plain Text
Duration : 30 min 7 s
Bit rate : 100 b/s
Count of elements : 480
Stream size : 22.1 KiB (0%)
Title : Hebrew
Language : Hebrew
Default : No
Forced : No

Text #19
ID : 21
Format : UTF-8
Codec ID : S_TEXT/UTF8
Codec ID/Info : UTF-8 Plain Text
Duration : 30 min 7 s
Bit rate : 180 b/s
Count of elements : 481
Stream size : 39.8 KiB (0%)
Title : Hindi
Language : Hindi
Default : No
Forced : No

Text #20
ID : 22
Format : UTF-8
Codec ID : S_TEXT/UTF8
Codec ID/Info : UTF-8 Plain Text
Duration : 30 min 7 s
Bit rate : 77 b/s
Count of elements : 470
Stream size : 17.1 KiB (0%)
Title : Hungarian
Language : Hungarian
Default : No
Forced : No

Text #21
ID : 23
Format : UTF-8
Codec ID : S_TEXT/UTF8
Codec ID/Info : UTF-8 Plain Text
Duration : 30 min 7 s
Bit rate : 80 b/s
Count of elements : 475
Stream size : 17.8 KiB (0%)
Title : Indonesian
Language : Indonesian
Default : No
Forced : No

Text #22
ID : 24
Format : UTF-8
Codec ID : S_TEXT/UTF8
Codec ID/Info : UTF-8 Plain Text
Duration : 30 min 9 s
Bit rate : 72 b/s
Count of elements : 480
Stream size : 16.0 KiB (0%)
Title : Italian
Language : Italian
Default : No
Forced : No

Text #23
ID : 25
Format : UTF-8
Codec ID : S_TEXT/UTF8
Codec ID/Info : UTF-8 Plain Text
Duration : 30 min 14 s
Bit rate : 61 b/s
Count of elements : 499
Stream size : 13.7 KiB (0%)
Title : Japanese
Language : Japanese
Default : No
Forced : No

Text #24
ID : 26
Format : UTF-8
Codec ID : S_TEXT/UTF8
Codec ID/Info : UTF-8 Plain Text
Duration : 30 min 7 s
Bit rate : 77 b/s
Count of elements : 489
Stream size : 17.1 KiB (0%)
Title : Korean
Language : Korean
Default : No
Forced : No

Text #25
ID : 27
Format : UTF-8
Codec ID : S_TEXT/UTF8
Codec ID/Info : UTF-8 Plain Text
Duration : 30 min 7 s
Bit rate : 76 b/s
Count of elements : 471
Stream size : 17.0 KiB (0%)
Title : Latvian
Language : Latvian
Default : No
Forced : No

Text #26
ID : 28
Format : UTF-8
Codec ID : S_TEXT/UTF8
Codec ID/Info : UTF-8 Plain Text
Duration : 30 min 7 s
Bit rate : 72 b/s
Count of elements : 471
Stream size : 16.1 KiB (0%)
Title : Lithuanian
Language : Lithuanian
Default : No
Forced : No

Text #27
ID : 29
Format : UTF-8
Codec ID : S_TEXT/UTF8
Codec ID/Info : UTF-8 Plain Text
Duration : 30 min 7 s
Bit rate : 76 b/s
Count of elements : 477
Stream size : 16.9 KiB (0%)
Title : Malay
Language : Malay
Default : No
Forced : No

Text #28
ID : 30
Format : UTF-8
Codec ID : S_TEXT/UTF8
Codec ID/Info : UTF-8 Plain Text
Duration : 30 min 7 s
Bit rate : 70 b/s
Count of elements : 439
Stream size : 15.6 KiB (0%)
Title : Norwegian
Language : Norwegian
Default : No
Forced : No

Text #29
ID : 31
Format : UTF-8
Codec ID : S_TEXT/UTF8
Codec ID/Info : UTF-8 Plain Text
Duration : 30 min 7 s
Bit rate : 68 b/s
Count of elements : 455
Stream size : 15.2 KiB (0%)
Title : Polish
Language : Polish
Default : No
Forced : No

Text #30
ID : 32
Format : UTF-8
Codec ID : S_TEXT/UTF8
Codec ID/Info : UTF-8 Plain Text
Duration : 30 min 7 s
Bit rate : 71 b/s
Count of elements : 469
Stream size : 15.7 KiB (0%)
Title : Portuguese
Language : Portuguese
Default : No
Forced : No

Text #31
ID : 33
Format : UTF-8
Codec ID : S_TEXT/UTF8
Codec ID/Info : UTF-8 Plain Text
Duration : 30 min 7 s
Bit rate : 68 b/s
Count of elements : 464
Stream size : 15.1 KiB (0%)
Title : Brazilian Portuguese
Language : Portuguese
Default : No
Forced : No

Text #32
ID : 34
Format : UTF-8
Codec ID : S_TEXT/UTF8
Codec ID/Info : UTF-8 Plain Text
Duration : 30 min 7 s
Bit rate : 117 b/s
Count of elements : 490
Stream size : 26.0 KiB (0%)
Title : Russian
Language : Russian
Default : No
Forced : No

Text #33
ID : 35
Format : UTF-8
Codec ID : S_TEXT/UTF8
Codec ID/Info : UTF-8 Plain Text
Duration : 30 min 7 s
Bit rate : 63 b/s
Count of elements : 472
Stream size : 14.0 KiB (0%)
Title : Slovak
Language : Slovak
Default : No
Forced : No

Text #34
ID : 36
Format : UTF-8
Codec ID : S_TEXT/UTF8
Codec ID/Info : UTF-8 Plain Text
Duration : 30 min 7 s
Bit rate : 59 b/s
Count of elements : 470
Stream size : 13.1 KiB (0%)
Title : Slovenian
Language : Slovenian
Default : No
Forced : No

Text #35
ID : 37
Format : UTF-8
Codec ID : S_TEXT/UTF8
Codec ID/Info : UTF-8 Plain Text
Duration : 30 min 7 s
Bit rate : 66 b/s
Count of elements : 446
Stream size : 14.7 KiB (0%)
Title : European Spanish
Language : Spanish
Default : No
Forced : No

Text #36
ID : 38
Format : UTF-8
Codec ID : S_TEXT/UTF8
Codec ID/Info : UTF-8 Plain Text
Duration : 30 min 7 s
Bit rate : 72 b/s
Count of elements : 477
Stream size : 16.1 KiB (0%)
Title : Spanish
Language : Spanish
Default : No
Forced : No

Text #37
ID : 39
Format : UTF-8
Codec ID : S_TEXT/UTF8
Codec ID/Info : UTF-8 Plain Text
Duration : 30 min 7 s
Bit rate : 67 b/s
Count of elements : 478
Stream size : 14.9 KiB (0%)
Title : Swedish
Language : Swedish
Default : No
Forced : No

Text #38
ID : 40
Format : UTF-8
Codec ID : S_TEXT/UTF8
Codec ID/Info : UTF-8 Plain Text
Duration : 30 min 7 s
Bit rate : 251 b/s
Count of elements : 479
Stream size : 55.4 KiB (0%)
Title : Tamil
Language : Tamil
Default : No
Forced : No

Text #39
ID : 41
Format : UTF-8
Codec ID : S_TEXT/UTF8
Codec ID/Info : UTF-8 Plain Text
Duration : 30 min 7 s
Bit rate : 200 b/s
Count of elements : 488
Stream size : 44.3 KiB (0%)
Title : Telugu
Language : Telugu
Default : No
Forced : No

Text #40
ID : 42
Format : UTF-8
Codec ID : S_TEXT/UTF8
Codec ID/Info : UTF-8 Plain Text
Duration : 30 min 7 s
Bit rate : 162 b/s
Count of elements : 479
Stream size : 35.9 KiB (0%)
Title : Thai
Language : Thai
Default : No
Forced : No

Text #41
ID : 43
Format : UTF-8
Codec ID : S_TEXT/UTF8
Codec ID/Info : UTF-8 Plain Text
Duration : 30 min 7 s
Bit rate : 72 b/s
Count of elements : 474
Stream size : 16.1 KiB (0%)
Title : Turkish
Language : Turkish
Default : No
Forced : No

Text #42
ID : 44
Format : UTF-8
Codec ID : S_TEXT/UTF8
Codec ID/Info : UTF-8 Plain Text
Duration : 30 min 7 s
Bit rate : 105 b/s
Count of elements : 481
Stream size : 23.3 KiB (0%)
Title : Ukrainian
Language : Ukrainian
Default : No
Forced : No

Text #43
ID : 45
Format : UTF-8
Codec ID : S_TEXT/UTF8
Codec ID/Info : UTF-8 Plain Text
Duration : 30 min 7 s
Bit rate : 94 b/s
Count of elements : 477
Stream size : 20.8 KiB (0%)
Title : Vietnamese
Language : Vietnamese
Default : No
Forced : No





Ted Lasso S02E04


Ted Lasso S02E04


Ted Lasso S02E04


Ted Lasso S02E04


Ted Lasso S02E04

All episodes