Featured TV Shows


Terror in the Woods S02E01

Posted By: Tavaz
720p (HD) / HDTV IMDb
Terror in the Woods S02E01

Terror in the Woods S02E01
HDTV | MKV | 1280x720 | Italiano | H264 @ 2708 kbps | AC-3 @ 384 kbps | 42 min 55 s | 950 MiB
Subtitles: Italiano
Genre: Documentario, Mistero


Investigate paranormal encounters in the wild. From gator hunting in Louisiana to ice fishing in Illinois, these are the real-life stories of people who embarked on an outdoors adventure, only to be scared out of the woods by ghosts, monsters, and other unexplained phenomena.

ab12015405509a075029de0597761ec2.mkv (950.2 MB)



General
Unique ID : 58970860559352652601944051428561745151 (0x2C5D5FE7148881E5308379ABB26374FF)
Complete name : ./ab12015405509a075029de0597761ec2.mkv
Format : Matroska
Format version : Version 4 / Version 2
File size : 950 MiB
Duration : 42 min 55 s
Overall bit rate : 3 095 kb/s
Encoded date : UTC 2020-06-30 04:45:09
Writing application : mkvmerge v30.1.0 ('Forever And More') 64-bit
Writing library : libebml v1.3.6 + libmatroska v1.4.9

Video
ID : 1
Format : AVC
Format/Info : Advanced Video Codec
Format profile : High@L4.1
Format settings : CABAC / 5 Ref Frames
Format settings, CABAC : Yes
Format settings, RefFrames : 5 frames
Codec ID : V_MPEG4/ISO/AVC
Duration : 42 min 55 s
Bit rate : 2 709 kb/s
Width : 1 280 pixels
Height : 720 pixels
Display aspect ratio : 16:9
Frame rate mode : Constant
Frame rate : 23.976 (24000/1001) FPS
Color space : YUV
Chroma subsampling : 4:2:0
Bit depth : 8 bits
Scan type : Progressive
Bits/(Pixel*Frame) : 0.123
Stream size : 832 MiB (88%)
Writing library : x264 core 160 r3009 4c9b076
Encoding settings : cabac=1 / ref=5 / deblock=1:0:0 / analyse=0x3:0x113 / me=umh / subme=8 / psy=1 / psy_rd=1.00:0.15 / mixed_ref=1 / me_range=16 / chroma_me=1 / trellis=2 / 8x8dct=1 / cqm=0 / deadzone=21,11 / fast_pskip=1 / chroma_qp_offset=-3 / threads=22 / lookahead_threads=3 / sliced_threads=0 / nr=0 / decimate=1 / interlaced=0 / bluray_compat=0 / constrained_intra=0 / bframes=3 / b_pyramid=2 / b_adapt=2 / b_bias=0 / direct=3 / weightb=1 / open_gop=0 / weightp=2 / keyint=240 / keyint_min=23 / scenecut=40 / intra_refresh=0 / rc_lookahead=50 / rc=crf / mbtree=1 / crf=20.0 / qcomp=0.60 / qpmin=0 / qpmax=69 / qpstep=4 / vbv_maxrate=62500 / vbv_bufsize=78125 / crf_max=0.0 / nal_hrd=none / filler=0 / ip_ratio=1.40 / aq=1:1.00
Language : English
Default : Yes
Forced : No
Color range : Limited
Matrix coefficients : BT.709

Audio
ID : 2
Format : AC-3
Format/Info : Audio Coding 3
Format settings, Endianness : Big
Codec ID : A_AC3
Duration : 42 min 55 s
Bit rate mode : Constant
Bit rate : 384 kb/s
Channel(s) : 6 channels
Channel positions : Front: L C R, Side: L R, LFE
Sampling rate : 48.0 kHz
Frame rate : 31.250 FPS (1536 SPF)
Bit depth : 16 bits
Compression mode : Lossy
Delay relative to video : 26 ms
Stream size : 118 MiB (12%)
Language : Italian
Service kind : Complete Main
Default : Yes
Forced : No

Text
ID : 3
Format : UTF-8
Codec ID : S_TEXT/UTF8
Codec ID/Info : UTF-8 Plain Text
Duration : 42 min 53 s
Bit rate : 90 b/s
Count of elements : 737
Stream size : 28.4 KiB (0%)
Language : Italian
Default : No
Forced : No





Terror in the Woods S02E01


Terror in the Woods S02E01


Terror in the Woods S02E01


Terror in the Woods S02E01


Terror in the Woods S02E01

All episodes