Index
# A B C D E F G H I J K L M N O P Q R S T U V W Y Z
Tags
Language
Tags

Featured TV Shows


Les 100 S05E08

Posted By: Tavaz
720p (HD) / BDRip IMDb
Les 100 S05E08

Les 100 S05E08
HDTV | MKV | 1280x720 | English | H264 @ 2668 kbps | MPEG Audio @ 192 kbps | 40 min 26 s | 844 MiB
Genre: Drame

Après une apocalypse causée par l'Homme lors d'une troisième Guerre Mondiale, les 318 survivants recensés se réfugient dans des stations spatiales et parviennent à y vivre et à se reproduire, atteignant le nombre de 4000. Mais 97 ans plus tard, le vaisseau mère, The Ark, est en piteux état. Une centaine de jeunes délinquants emprisonnés au fil des années pour des crimes ou des trahisons sont choisis comme cobayes par les autorités pour redescendre sur Terre et tester les chances de survie. Dès leur arrivée, ils découvrent un nouveau monde dangereux mais fascinant…

The.100.S05E11.FRENCH.HDTV.XviD-EXTREME.avi (350.6 MB)
The.100.S05E10.FRENCH.720p.HDTV.x264-SH0W.mkv (816.7 MB)
The.100.S05E09.FRENCH.720p.HDTV.x264-SH0W.mkv (840.1 MB)
The.100.S05E13.FiNAL.FRENCH.HDTV.XviD-EXTREME.avi (332.4 MB)
The.100.S05E07.FRENCH.720p.HDTV.x264-SH0W.mkv (844.2 MB)
The.100.S05E12.FRENCH.HDTV.XviD-EXTREME.avi (342.9 MB)
The.100.S05E08.FRENCH.720p.HDTV.x264-SH0W.mkv (839.8 MB)



General
Complete name : ./The.100.S05E07.FRENCH.720p.HDTV.x264-SH0W.mkv
Format : Matroska
Format version : Version 2
File size : 844 MiB
Duration : 40 min 26 s
Overall bit rate : 2 919 kb/s
Writing application : x264.exe
Writing library : mkv2rls x264-tv version built on 2016.10.12

Video
ID : 1
Format : AVC
Format/Info : Advanced Video Codec
Format profile : High@L4.1
Format settings : CABAC / 8 Ref Frames
Format settings, CABAC : Yes
Format settings, RefFrames : 8 frames
Codec ID : V_MPEG4/ISO/AVC
Duration : 40 min 26 s
Bit rate : 2 669 kb/s
Width : 1 280 pixels
Height : 720 pixels
Display aspect ratio : 16:9
Frame rate mode : Constant
Frame rate : 25.000 FPS
Color space : YUV
Chroma subsampling : 4:2:0
Bit depth : 8 bits
Scan type : Progressive
Bits/(Pixel*Frame) : 0.116
Stream size : 772 MiB (91%)
Writing library : x264 core 157 r2935 545de2f
Encoding settings : cabac=1 / ref=8 / deblock=1:0:0 / analyse=0x3:0x133 / me=umh / subme=10 / psy=1 / psy_rd=1.00:0.00 / mixed_ref=1 / me_range=32 / chroma_me=1 / trellis=2 / 8x8dct=1 / cqm=0 / deadzone=21,11 / fast_pskip=0 / chroma_qp_offset=-2 / threads=22 / lookahead_threads=1 / sliced_threads=0 / nr=0 / decimate=1 / interlaced=0 / bluray_compat=0 / constrained_intra=0 / bframes=3 / b_pyramid=2 / b_adapt=2 / b_bias=0 / direct=3 / weightb=1 / open_gop=0 / weightp=2 / keyint=250 / keyint_min=25 / scenecut=40 / intra_refresh=0 / rc_lookahead=60 / rc=crf / mbtree=1 / crf=18.0 / qcomp=0.60 / qpmin=0 / qpmax=69 / qpstep=4 / ip_ratio=1.40 / aq=1:1.00
Language : English
Default : Yes
Forced : No
Color range : Limited
Matrix coefficients : BT.709

Audio
ID : 2
Format : MPEG Audio
Format version : Version 1
Format profile : Layer 2
Codec ID : A_MPEG/L2
Codec ID/Hint : MP2
Duration : 40 min 26 s
Bit rate mode : Constant
Bit rate : 192 kb/s
Channel(s) : 2 channels
Sampling rate : 48.0 kHz
Compression mode : Lossy
Stream size : 55.5 MiB (7%)
Language : English
Default : Yes
Forced : No





Les 100 S05E08


Les 100 S05E08


Les 100 S05E08


Les 100 S05E08


Les 100 S05E08

All episodes